Банда Йонссона и Динамит-Гарри / Jonssonligan & DynamitHarry (Микаэль Экман / Mikael Ekman) [1982, Швеция, Комедия, детектив, DVDRip] VO

DL-List and Torrent activity
Size:  1.46 GB   |    Registered:  2 years 9 months   |    Completed:  16 times
Seeders:  5  
 
   
 
 

erzsebet.org ®

Longevity:
2 years 9 months
Posts:
47596

[Quote] 

Банда Йонссона и Динамит-Гарри / Jonssonligan & DynamitHarry- Страна: Швеция, Дания
Жанр: Комедия, детектив
Год выпуска: 1982
Продолжительность: 01:41:34-Перевод: Одноголосый закадровый [Ростислав Ганичев]
Субтитры: нет-Режиссер: Микаэль Экман / Mikael Ekman-В ролях: Йоста Экман, Ульф Бруннберг, Нильс Брандт, Бьорн Густафсон, Карл Билльквист, Дан Экборг, Стен Арденстам, Мона Сейлитц, Вейрон Хольмберг, Ярл Борссен, Лена Сёдерблум, Пер Грунден, Педер Иварссон, Петер Харрюсон, Ян Нюгрен-Описание: Чарльз-Ингвар Йонссон, он же - Шкет, очень не хотел брать в свою банду нового подельника по имени Гарри, будто предчувствовал, что всё это добром не кончится. Пьющий подрывник-пиротехник не вызывает большого доверия, но Шкету приходиться работать с теми, кто есть. Тем более, он намерен ограбить шведского криминального олигарха Валль-Энберга, промышляющего контрабандой, и ему нужны лишние руки. Йонссон, как всегда, разрабатывает подробный план, предусматривающий любое развитие событий. Или почти любое, ведь с его балбесами не соскучишься.-Благодарность:
- за перевод и озвучку фильма - Ростислав Ганичев
- за предоставленную русскую звуковую дорожку и описание фильма - semen1011-Sample | IMDB | КиноПоиск-Тип релиза: DVDRip
Формат видео: AVI-Видео: 672x448 (1.50:1), 25 fps, XviD build 50, 1924 kbps avg, 0.26 bit/pixel
Аудио: 44.100 kHz, MPEG Layer 3, 2 ch, 128.00 kbps avg-Релиз группы: -

Интересные факты о фильме

- Классический фильм из разряда тех, что не получают премий на кинофестивалях, но становятся явлением национальной культуры. По аналогии с фильмами Гайдая, «Банда Йонссона» разошлась на цитаты. По ней устраиваются тематические вечеринки, где молодые люди одеваются под Шкета, Ванхедена или Гарри, а их барышни – конечно, представляют Ивонн или Дорис из «Банды Йонссона на Майорке». Существует фан-клуб этого сериала, члены которого выкупают для музея реликвии из любимой картины, например, знаменитую машину «Шевроле-Импала» 1964 г., у которой «на ходу запчасти отваливаются».
- Сюжет позаимствован из датского фильма «Банда Ольсена наносит удар» / «Olsenbanden slår till» (1973 г.)

MediaInfo

General
Complete name : D:\Мои релизы\Jonssonligan & DynamitHarry (1982)_DVDRip_RG_All_Films.avi
Format : AVI
Format/Info : Audio Video Interleave
File size : 1.46 GiB
Duration : 1h 41mn
Overall bit rate : 2 062 Kbps
Writing application : VirtualDubMod 1.6.0.0 SURROUND (build 2560/release)
Writing library : VirtualDubMod build 2560/release
Video
ID : 0
Format : MPEG-4 Visual
Format profile : Advanced [email protected]
Format settings, BVOP : Yes
Format settings, QPel : No
Format settings, GMC : No warppoints
Format settings, Matrix : Custom
Codec ID : XVID
Codec ID/Hint : XviD
Duration : 1h 41mn
Bit rate : 1 925 Kbps
Width : 672 pixels
Height : 448 pixels
Display aspect ratio : 3:2
Frame rate : 25.000 fps
Color space : YUV
Chroma subsampling : 4:2:0
Bit depth : 8 bits
Scan type : Progressive
Compression mode : Lossy
Bits/(Pixel*Frame) : 0.256
Stream size : 1.37 GiB (93%)
Writing library : XviD 1.2.1 (UTC 2008-12-04)
Audio
ID : 1
Format : MPEG Audio
Format version : Version 1
Format profile : Layer 3
Mode : Joint stereo
Codec ID : 55
Codec ID/Hint : MP3
Duration : 1h 41mn
Bit rate mode : Constant
Bit rate : 128 Kbps
Channel(s) : 2 channels
Sampling rate : 44.1 KHz
Compression mode : Lossy
Stream size : 93.0 MiB (6%)
Alignment : Split accross interleaves
Interleave, duration : 40 ms (1.00 video frame)
Interleave, preload duration : 500 ms

Скриншоты

If your ratio falls below 0.3, you will not be able to download Torrents! More about the rating.

[erzsebet.pl].t722.torrent
Torrent: Registered   [ 2017-12-02 17:13 ]

Download .torrent

Download

15 KB

Status: checked
Completed: 16 times
Size: 1.46 GB
terms.php

#1

02-Dec-2017 17:12

[Profile]  [PM] 
Display posts:    

You cannot post new topics in this forum
You cannot reply to topics in this forum
You cannot edit your posts in this forum
You cannot delete your posts in this forum
You cannot vote in polls in this forum
You cannot attach files in this forum
You can download files in this forum
User agreement
For copyright holders
Advertise on this site

Скачайте на халяву через торрент на трекере erzsebet.pl

!ATTENTION!
The site does not give electronic versions of products, and is engaged only in a collecting and cataloguing of the references sent and published at a forum by our readers. If you are the legal owner of any submitted material and do not wish that the reference to it was in our catalogue, contact us and we shall immediately remove her. Files for an exchange on tracker are given by users of a site, and the administration does not bear the responsibility for their maintenance. The request to not fill in the files protected by copyrights, and also files of the illegal maintenance!