Приключения Пиноккио / The Adventures of Pinocchio (Стив Бэррон / Steve Barron) [1996, Великобритания, США, Франция, Германия, Чехия, мюзикл, фэнтези, приключения, семейный, HDRip] MVO (ОРТ) + Original Eng

DL-List and Torrent activity
Size:  1.36 GB   |    Registered:  2 years 9 months   |    Completed:  16 times
Seeders:  2  
 
   
 
 

erzsebet.org ®

Longevity:
2 years 9 months
Posts:
47596

[Quote] 

Приключения Пиноккио / The Adventures of Pinocchio-Хотите ли вы вновь поверить в чудеса?
Хотите ли вы, чтобы ожили самые яркие воспоминания детства?
Сделайте подарок всем близким людям
Пусть доброта войдёт в ваше сердце.
- Год выпуска: 1996
Страна: Великобритания, США, Франция, Германия, Чехия
Жанр: мюзикл, фэнтези, приключения, семейный
Продолжительность: 01:34:31
Перевод: Профессиональный (многоголосый закадровый) - ОРТ
Субтитры: нет
Оригинальная аудиодорожка: английский
Режиссер: Стив Бэррон / Steve Barron
В ролях: Мартин Ландау / Geppetto, Джонатан Тейлор Томас / Pinocchio, Роб Шнайдер / Volpe, Удо Кир / Lorenzini, Биби Ньювирт / Felinet, Дэвид Дойл / Pepe the Cricket, Кори Кэрриэр / Lampwick, Дон Френч / Baker's wife, Грифф Риз Джонс / Tino, Марчелло Маньи / Pastry shop baker, Женевьев Бюжо / Leona-Мировая премьера: 26 июля 1996-Описание: Сказка о приключениях деревянного мальчика, известного нам как Буратино. Будучи сорванцом и непоседой, он доверчиво попался на удочку мошенников, возжелавших обогатиться за его счет. Но друзья помогли ему понять, что главное в жизни - не безделье и богатство, а дружба, верность, любовь.-Благодарности:
qwerty976 - видеоряд.
pasific2013 - личная запись фильма с телеканала ОРТ в 2003 году через видеомагнитофон и оцифровка звука с видеокассеты.
JUSTKANT - синхронизация перевода.-ДАННЫЙ ПЕРЕВОД НА ТРЕКЕРЕ ПОЯВЛЯЕТСЯ ВПЕРВЫЕ!.
На русский язык фильм озвучен кинокомпанией "Селена Интернешнл" по заказу Общественного Российского Телевидения.
Текст читают Александр Новиков, Артём Карапетян, Мария Овчиникова и Татьяна Божок-
Рейтинг

MPAA: G - Нет возрастных ограничений.-Качество видео: HDRip
Формат видео: AVI -> //Сэмпл//
Видео: XviD, 720x304 (2.35:1), 23.976 fps, 1623 kbps
Аудио:
1 - 48 khz, AC3 Dolby Digital, 2/0 (L,R) ch, ~192 kbps [ОРТ] VHSRip-ТВ
2 - 48 khz, AC3 Dolby Digital, 2/0 (L,R) ch, ~224 kbps [Английский]

MediaInfo

General
Complete name : D:\Приключения Пиноккио (ОРТ + Оригинал).avi
Format : AVI
Format/Info : Audio Video Interleave
File size : 1.36 GiB
Duration : 1 h 34 min
Overall bit rate : 2 053 kb/s
Movie name : Приключения Пиноккио / The Adventures of Pinocchio / Die Legende von Pinocchio (ОРТ + Оригинал)
Director : JUSTKANT
Writing application : VirtualDubMod 1.5.10.3 (build 2550/release)
Copyright : На русский язык фильм озвучен по заказу ОРТ
Comment : Качество звука: ОРТ - VHSRipТВ (pasific2013)
Video
ID : 0
Format : MPEG-4 Visual
Format profile : Advanced [email protected]
Format settings, BVOP : 2
Format settings, QPel : No
Format settings, GMC : No warppoints
Format settings, Matrix : Custom
Codec ID : XVID
Codec ID/Hint : XviD
Duration : 1 h 34 min
Bit rate : 1 623 kb/s
Width : 720 pixels
Height : 304 pixels
Display aspect ratio : 2.35:1
Frame rate : 23.976 (24000/1001) FPS
Color space : YUV
Chroma subsampling : 4:2:0
Bit depth : 8 bits
Scan type : Progressive
Compression mode : Lossy
Bits/(Pixel*Frame) : 0.309
Stream size : 1.07 GiB (79%)
Writing library : XviD 73
Audio #1
ID : 1
Format : AC-3
Format/Info : Audio Coding 3
Format settings, Endianness : Big
Codec ID : 2000
Duration : 1 h 34 min
Bit rate mode : Constant
Bit rate : 192 kb/s
Channel(s) : 2 channels
Channel positions : Front: L R
Sampling rate : 48.0 kHz
Frame rate : 31.250 FPS (1536 SPF)
Bit depth : 16 bits
Compression mode : Lossy
Stream size : 130 MiB (9%)
Alignment : Split accross interleaves
Interleave, duration : 42 ms (1.00 video frame)
Interleave, preload duratio : 500 ms
Title : ОРТ: Александр Новиков, Артём Карапетян, Мария Овчиникова и Татьяна Божок
Service kind : Complete Main
Audio #2
ID : 2
Format : AC-3
Format/Info : Audio Coding 3
Format settings, Endianness : Big
Codec ID : 2000
Duration : 1 h 34 min
Bit rate mode : Constant
Bit rate : 224 kb/s
Channel(s) : 2 channels
Channel positions : Front: L R
Sampling rate : 48.0 kHz
Frame rate : 31.250 FPS (1536 SPF)
Bit depth : 16 bits
Compression mode : Lossy
Stream size : 151 MiB (11%)
Alignment : Split accross interleaves
Interleave, duration : 42 ms (1.00 video frame)
Interleave, preload duratio : 500 ms
Title : Оригинальный (английский)
Service kind : Complete Main

Скриншот c названием фильма

Скриншоты

If your ratio falls below 0.3, you will not be able to download Torrents! More about the rating.

[erzsebet.pl].t723.torrent
Torrent: Registered   [ 2017-12-02 17:17 ]

Download .torrent

Download

14 KB

Status: checked
Completed: 16 times
Size: 1.36 GB
terms.php

#1

02-Dec-2017 17:16

[Profile]  [PM] 
Display posts:    

You cannot post new topics in this forum
You cannot reply to topics in this forum
You cannot edit your posts in this forum
You cannot delete your posts in this forum
You cannot vote in polls in this forum
You cannot attach files in this forum
You can download files in this forum
User agreement
For copyright holders
Advertise on this site

Скачайте на халяву через торрент на трекере erzsebet.pl

!ATTENTION!
The site does not give electronic versions of products, and is engaged only in a collecting and cataloguing of the references sent and published at a forum by our readers. If you are the legal owner of any submitted material and do not wish that the reference to it was in our catalogue, contact us and we shall immediately remove her. Files for an exchange on tracker are given by users of a site, and the administration does not bear the responsibility for their maintenance. The request to not fill in the files protected by copyrights, and also files of the illegal maintenance!