Адам и Ева: Первая история любви / Adamo ed Eva, la prima storia d'amore / Adam and Eve: First love story (Энцо Дориа / Enzo Doria, Луиджи Руссо / Luigi Russo) [1983, Италия, Испания, мелодрама, приключения, DVDRip] VO + Original Ita

DL-List and Torrent activity
Size:  1.46 GB   |    Registered:  2 years 9 months   |    Completed:  16 times
Seeders:  3  
 
   
 
 

erzsebet.org ®

Longevity:
2 years 9 months
Posts:
47596

[Quote] 

Адам и Ева: Первая история любвиAdamo ed Eva, la prima storia d'amore / Adam and Eve: First love story Страна: Италия, Испания
Жанр: мелодрама, приключения
Год выпуска: 1983
Продолжительность: 01:25:54
Перевод: Одноголосый закадровый
Субтитры: нет
Оригинальная аудиодорожка: итальянский
Режиссер: Энцо Дориа / Enzo Doria, Луиджи Руссо / Luigi Russo
В ролях: Марк Грегори, Андреа Голдман, Анхель Алькасар, Костантино Росси, Пьеранджело Подзато, Вито Форнари, Лилиана Джераче, Андреа Аурели, Марко Антонио Андольфи, Маурицио Маргутти
Описание: Наверное, самый красивый и жизненный фильм про то, как начался путь первых мужчины и женщины…
Два особых дерева есть среди Эдемского сада: Дерево Жизни и Дерево познания Добра и Зла. Господь разрешил Адаму есть «от всякого дерева в саду» и только есть плоды от Дерева познания Добра и Зла было запрещено, предупредив, что результатом неповиновения будет смерть. Змей же, который «был хитрее всех зверей полевых, которых создал Господь Бог», хитростью и уловками убеждает Еву вкусить плод запретного Дерева познания Добра и Зла…
Одно из толкований библейского сюжета. Несерьезно о серьёзных вещах.
Доп. информация: Студия: Alex Film International, Arco Film- - -Качество видео: DVDRip
Формат видео: AVI
Видео: DivX 1894 Кбит/сек, 720x384, 25 fps
Аудио 1: AC3 128 Кбит/сек, 2 канала, 48,0 КГц - русский
Аудио 2: AC3 192 Кбит/сек, 2 канала, 48,0 КГц - английский
Аудио 3: AC3 192 Кбит/сек, 2 канала, 48,0 КГц - итальянский

MediaInfo

Общее
Полное имя : Адам и Ева. Первая история любви 1983, Италия, Испания, мелодрама, приключения.avi
Формат : AVI
Формат/Информация : Audio Video Interleave
Профиль формата : OpenDML
Размер файла : 1,46 Гбайт
Продолжительность : 1 ч. 25 м.
Общий поток : 2432 Кбит/сек
Программа кодирования : Lavf57.71.100
Примечание : Rip by romaska
Видео
Идентификатор : 0
Формат : MPEG-4 Visual
Настройки формата : BVOP
Параметр BVOP формата : Да
Параметр QPel формата : Нет
Параметр GMC формата : Без точки перехода
Параметр матрицы формата : Default (H.263)
Идентификатор кодека : DX50
Идентификатор кодека/Подсказка : DivX 5
Продолжительность : 1 ч. 25 м.
Битрейт : 1894 Кбит/сек
Номинальный битрейт : 4854 Кбит/сек
Ширина : 720 пикселей
Высота : 384 пикселя
Соотношение сторон : 1,85:1
Частота кадров : 25,000 кадров/сек
Цветовое пространство : YUV
Субдискретизация насыщенности : 4:2:0
Битовая глубина : 8 бит
Тип развёртки : Прогрессивная
Метод сжатия : С потерями
Бит/(Пиксели*Кадры) : 0.274
Размер потока : 1,14 Гбайт (78%)
Библиотека кодирования : DivX 6.8.5 (UTC 2009-08-20)
Аудио #1
Идентификатор : 1
Формат : AC-3
Формат/Информация : Audio Coding 3
Параметр Endianness формата : Big
Идентификатор кодека : 2000
Продолжительность : 1 ч. 25 м.
Вид битрейта : Постоянный
Битрейт : 128 Кбит/сек
Каналы : 2 канала
Расположение каналов : Front: L R
Частота : 48,0 КГц
Частота кадров : 31,250 кадров/сек (1536 SPF)
Битовая глубина : 16 бит
Метод сжатия : С потерями
Размер потока : 78,6 Мбайт (5%)
Выравнивание : Соединение по промежуткам
Продолжительность промежутка : 32 мс. (0,80 видеокадр)
Заголовок : Russian
ServiceKind/String : Complete Main
Аудио #2
Идентификатор : 2
Формат : AC-3
Формат/Информация : Audio Coding 3
Параметр Endianness формата : Big
Идентификатор кодека : 2000
Продолжительность : 1 ч. 25 м.
Вид битрейта : Постоянный
Битрейт : 192 Кбит/сек
Каналы : 2 канала
Расположение каналов : Front: L R
Частота : 48,0 КГц
Частота кадров : 31,250 кадров/сек (1536 SPF)
Битовая глубина : 16 бит
Метод сжатия : С потерями
Размер потока : 118 Мбайт (8%)
Выравнивание : Соединение по промежуткам
Продолжительность промежутка : 32 мс. (0,80 видеокадр)
Заголовок : English
ServiceKind/String : Complete Main
Аудио #3
Идентификатор : 3
Формат : AC-3
Формат/Информация : Audio Coding 3
Параметр Endianness формата : Big
Идентификатор кодека : 2000
Продолжительность : 1 ч. 25 м.
Вид битрейта : Постоянный
Битрейт : 192 Кбит/сек
Каналы : 2 канала
Расположение каналов : Front: L R
Частота : 48,0 КГц
Частота кадров : 31,250 кадров/сек (1536 SPF)
Битовая глубина : 16 бит
Метод сжатия : С потерями
Размер потока : 118 Мбайт (8%)
Выравнивание : Соединение по промежуткам
Продолжительность промежутка : 32 мс. (0,80 видеокадр)
Заголовок : Italian
ServiceKind/String : Complete Main

Скриншот c названием фильма

-Ссылки на мои файлы Раздача-Заново скачайте торрент, перезалив торрента. 24 Октября 2017
-
Сообщения из этой темы [5 шт.] были выделены в отдельную тему Выделено из: Адам и Ева: Первая история любви / Adamo ed Eva, la prima storia d'amore / Adam and Eve: First love story (Энцо Дориа / Enzo Doria, Луиджи Руссо / Lui [5469608]
crazywelder

If your ratio falls below 0.3, you will not be able to download Torrents! More about the rating.

[erzsebet.pl].t724.torrent
Torrent: Registered   [ 2017-12-02 17:13 ]

Download .torrent

Download

15 KB

Status: checked
Completed: 16 times
Size: 1.46 GB
terms.php

#1

02-Dec-2017 17:12

[Profile]  [PM] 
Display posts:    

You cannot post new topics in this forum
You cannot reply to topics in this forum
You cannot edit your posts in this forum
You cannot delete your posts in this forum
You cannot vote in polls in this forum
You cannot attach files in this forum
You can download files in this forum
User agreement
For copyright holders
Advertise on this site

Скачайте на халяву через торрент на трекере erzsebet.pl

!ATTENTION!
The site does not give electronic versions of products, and is engaged only in a collecting and cataloguing of the references sent and published at a forum by our readers. If you are the legal owner of any submitted material and do not wish that the reference to it was in our catalogue, contact us and we shall immediately remove her. Files for an exchange on tracker are given by users of a site, and the administration does not bear the responsibility for their maintenance. The request to not fill in the files protected by copyrights, and also files of the illegal maintenance!