Лето Суне / Sunes Sommar (Стефан Апельгрен / Stephan Apelgren) [1993, Швеция, Комедия, семейный, DVDRip-AVC] VO + Sub Rus + Original Swe

DL-List and Torrent activity
Size:  1.52 GB   |    Registered:  2 years 9 months   |    Completed:  16 times
Seeders:  3  
 
   
 
 

erzsebet.org ®

Longevity:
2 years 9 months
Posts:
47596

[Quote] 

Лето Суне / Sunes Sommar
Страна: Швеция
Жанр: Комедия, семейный
Год выпуска: 1993
Продолжительность: 01:28:40
Перевод: Одноголосый закадровый
Субтитры: русские, шведске
Оригинальная аудиодорожка: шведский
Режиссер: Стефан Апельгрен / Stephan Apelgren
В ролях: Петер Хабер, Карина Лидбум, Андреас Хоффер, Габриель Уденхаммар.
Описание: Это лето семья Суне планирует провести в Греции, но после инцидента в туристическом агентстве о поездке уже не может быть и речи. Но отцу семейства, Рудольфу, приходит в голову гениальная мысль: почему бы не арендовать трейлер и не провести отпуск на лоне природы в родной Швеции?
Доп. информация: Фильм взят отсюда http://erzsebet.org/forum/viewtopic.php?t=5388636
Сэмпл: http://multi-up.com/1175493
Качество видео: DVDRip-AVC
Формат видео: MKV
Видео: AVC at 2066 Кбит/сек : [email protected]х488 (1.539) at 25.000 fps
Аудио 1: AC-3 at 192 Кбит/сек : 2 канала, 48,0 КГц Language : ru
Аудио 2: AC-3 at 192 Кбит/сек : 2 канала, 48,0 КГц Language : sv
Формат субтитров: prerendered (IDX+SUB)
Доп. информация о субтитрах: русские (Alisha N. aka Alisher), шведске отключаемые

MediaInfo

Общее
Уникальный идентификатор : 177217651096944133499286662226400025304 (0x8552E0CAA5CAFC36BA11C11610249AD8)
Полное имя : F:\С моей озвучкой\Лето Суне.mkv
Формат : Matroska
Версия формата : Version 4 / Version 2
Размер файла : 1,52 Гбайт
Продолжительность : 1 ч. 28 м.
Общий поток : 2452 Кбит/сек
Дата кодирования : UTC 2017-11-08 19:44:29
Программа кодирования : mkvmerge v7.9.0 ('Birds') 64bit
Библиотека кодирования : libebml v1.3.1 + libmatroska v1.4.2
Видео
Идентификатор : 1
Формат : AVC
Формат/Информация : Advanced Video Codec
Профиль формата : [email protected]
Параметр CABAC формата : Да
Параметр RefFrames формата : 9 кадров
Идентификатор кодека : V_MPEG4/ISO/AVC
Продолжительность : 1 ч. 28 м.
Битрейт : 2066 Кбит/сек
Ширина : 704 пикселя
Высота : 488 пикселей
Соотношение сторон : 3:2
Режим частоты кадров : Постоянный
Частота кадров : 25,000 кадров/сек
Цветовое пространство : YUV
Субдискретизация насыщенности : 4:2:0
Битовая глубина : 8 бит
Тип развёртки : Прогрессивная
Бит/(Пиксели*Кадры) : 0.241
Размер потока : 1,28 Гбайт (84%)
Заголовок : 1993. Sunes Sommar
Библиотека кодирования : x264 core 148 r2762 90a61ec
Настройки программы : cabac=1 / ref=9 / deblock=1:-2:-1 / analyse=0x3:0x113 / me=umh / subme=10 / psy=1 / psy_rd=1.00:0.00 / mixed_ref=1 / me_range=32 / chroma_me=1 / trellis=2 / 8x8dct=1 / cqm=0 / deadzone=21,11 / fast_pskip=1 / chroma_qp_offset=-2 / threads=6 / lookahead_threads=1 / sliced_threads=0 / nr=0 / decimate=1 / interlaced=0 / bluray_compat=0 / constrained_intra=0 / bframes=6 / b_pyramid=2 / b_adapt=2 / b_bias=0 / direct=3 / weightb=1 / open_gop=0 / weightp=2 / keyint=250 / keyint_min=25 / scenecut=40 / intra_refresh=0 / rc_lookahead=60 / rc=crf / mbtree=1 / crf=19.0 / qcomp=0.65 / qpmin=0 / qpmax=69 / qpstep=4 / ip_ratio=1.40 / aq=2:1.00
Язык : Swedish
Default : Да
Forced : Нет
Цветовой диапазон : Limited
Коэффициенты матрицы : BT.709
Аудио #1
Идентификатор : 2
Формат : AC-3
Формат/Информация : Audio Coding 3
Параметр Endianness формата : Big
Идентификатор кодека : A_AC3
Продолжительность : 1 ч. 28 м.
Вид битрейта : Постоянный
Битрейт : 192 Кбит/сек
Каналы : 2 канала
Расположение каналов : Front: L R
Частота : 48,0 КГц
Частота кадров : 31,250 кадров/сек (1536 SPF)
Битовая глубина : 16 бит
Метод сжатия : С потерями
Размер потока : 122 Мбайт (8%)
Язык : Russian
ServiceKind/String : Complete Main
Default : Да
Forced : Нет
Аудио #2
Идентификатор : 3
Формат : AC-3
Формат/Информация : Audio Coding 3
Параметр Endianness формата : Big
Идентификатор кодека : A_AC3
Продолжительность : 1 ч. 28 м.
Вид битрейта : Постоянный
Битрейт : 192 Кбит/сек
Каналы : 2 канала
Расположение каналов : Front: L R
Частота : 48,0 КГц
Частота кадров : 31,250 кадров/сек (1536 SPF)
Битовая глубина : 16 бит
Метод сжатия : С потерями
Задержка видео : 8 мс.
Размер потока : 122 Мбайт (8%)
Заголовок : Svenska, DVD R2
Язык : Swedish
ServiceKind/String : Complete Main
Default : Нет
Forced : Нет
Текст #1
Идентификатор : 4
Формат : UTF-8
Идентификатор кодека : S_TEXT/UTF8
Идентификатор кодека/Информация : UTF-8 Plain Text
Продолжительность : 1 ч. 26 м.
Битрейт : 56 бит/сек
ElementCount : 531
Размер потока : 35,6 Кбайт (0%)
Заголовок : Russian
Язык : Russian
Default : Нет
Forced : Нет
Текст #2
Идентификатор : 5
Формат : UTF-8
Идентификатор кодека : S_TEXT/UTF8
Идентификатор кодека/Информация : UTF-8 Plain Text
Продолжительность : 1 ч. 26 м.
Битрейт : 33 бит/сек
ElementCount : 563
Размер потока : 21,1 Кбайт (0%)
Заголовок : Svenska, DVD R2
Язык : Swedish
Default : Да
Forced : Нет

Скриншоты

If your ratio falls below 0.3, you will not be able to download Torrents! More about the rating.

[erzsebet.pl].t725.torrent
Torrent: Registered   [ 2017-12-02 17:17 ]

Download .torrent

Download

16 KB

Status: checked
Completed: 16 times
Size: 1.52 GB
terms.php

#1

02-Dec-2017 17:16

[Profile]  [PM] 
Display posts:    

You cannot post new topics in this forum
You cannot reply to topics in this forum
You cannot edit your posts in this forum
You cannot delete your posts in this forum
You cannot vote in polls in this forum
You cannot attach files in this forum
You can download files in this forum
User agreement
For copyright holders
Advertise on this site

Скачайте на халяву через торрент на трекере erzsebet.pl

!ATTENTION!
The site does not give electronic versions of products, and is engaged only in a collecting and cataloguing of the references sent and published at a forum by our readers. If you are the legal owner of any submitted material and do not wish that the reference to it was in our catalogue, contact us and we shall immediately remove her. Files for an exchange on tracker are given by users of a site, and the administration does not bear the responsibility for their maintenance. The request to not fill in the files protected by copyrights, and also files of the illegal maintenance!