Карточный домик / Kártyavár (Дьёрдь Хинч / György Hintsch) [1968, Венгрия, детектив, криминал, триллер, экранизация, VHSRip > DVD] [Советская прокатная копия] Dub (Горького)

DL-List and Torrent activity
Size:  4.04 GB   |    Registered:  2 years 9 months   |    Completed:  16 times
Seeders:  2   Leechers:  2   Show peers in full details
 
   
 
 

erzsebet.org ®

Longevity:
2 years 9 months
Posts:
47596

[Quote] 

Карточный домик / Kártyavár [Советская прокатная копия]- Страна: Венгрия
Жанр: детектив, криминал, триллер, экранизация
Год выпуска: 1968
Продолжительность: 01:22:23-Перевод: Профессиональный (дублированный) - Киностудия им. М. Горького
Субтитры: нет-Режиссер: Дьёрдь Хинч / György Hintsch
В ролях: Дьёрдь Кальман, Мари Тёрёчик, Антал Пагер, Золтан Латинович, Ева Рутткаи, Маргит Макаи, Андреа Драхота, Дьюла Бодроги, Ласло Инке, Ференц Каллаи, Шандор Печи, Ласло Баго, Ласло Чурка, Хильда Гобби, Янош Гостоньи, Дьюла Камараш, Бела Коллар, Янош Маклари, Янош Пастор, Йожеф Вандор, Ласло Мишога...- | Релиз: -Описание: По новелле Силарда Рубина.
Год назад был застрелен знаменитый врач, профессор Миклош Келлер. Убийство остается всё ещё нераскрытым... Следователь Дьёрдь Барта начинает расследование и под его подозрение попадает самое ближайшее окружение Келлера. Не смотря на то, что у всех вроде есть алиби - всё не так просто. И когда круг подозреваемых сужается, происходит убийство экономки профессора - Ольги Радич...-Семпл: http://sendfile.su/1371843-Тип релиза: VHSRip
Контейнер: DVD-Video
Видео: PAL 720x576 (4:3) @ 768x576, 25.000 fps, MPEG-2 Video, ~6624 Kbps, 0.639 bits/pixel
Аудио: Русский, 48.0 KHz, MPEG-1 Audio layer 2, 2 ch, 256 Kbps

DVDInfo

Title: Карточный домик 1968 Dub Горького
Size: 4.04 Gb ( 4 236 060,00 KBytes ) - DVD-5
Enabled regions: 1, 2, 3, 4, 5, 6
VTS_01 :
Play Length: 01:22:23
Video: PAL 4:3 (720x576) VBR
Audio:
Not specified (MPEG1, 2 ch)

MediaInfo

General
Complete name : \Карточный домик 1968 Dub Горького\VIDEO_TS\VTS_01_1.VOB
Format : MPEG-PS
File size : 1 024 MiB
Duration : 20 min 23 s
Overall bit rate mode : Variable
Overall bit rate : 7 020 kb/s
Video
ID : 224 (0xE0)
Format : MPEG Video
Format version : Version 2
Format profile : [email protected]
Format settings : CustomMatrix / BVOP
Format settings, BVOP : Yes
Format settings, Matrix : Custom
Format settings, GOP : M=3, N=15
Format settings, picture structure : Frame
Duration : 20 min 23 s
Bit rate mode : Variable
Bit rate : 6 624 kb/s
Maximum bit rate : 9 945 kb/s
Width : 720 pixels
Height : 576 pixels
Display aspect ratio : 4:3
Frame rate : 25.000 FPS
Standard : PAL
Color space : YUV
Chroma subsampling : 4:2:0
Bit depth : 8 bits
Scan type : Interlaced
Scan order : Top Field First
Compression mode : Lossy
Bits/(Pixel*Frame) : 0.639
Time code of first frame : 00:00:03:00
Time code source : Group of pictures header
GOP, Open/Closed : Open
Stream size : 966 MiB (94%)
Audio
ID : 192 (0xC0)
Format : MPEG Audio
Format version : Version 1
Format profile : Layer 2
Duration : 20 min 23 s
Bit rate mode : Constant
Bit rate : 256 kb/s
Channel(s) : 2 channels
Sampling rate : 48.0 kHz
Compression mode : Lossy
Delay relative to video : -272 ms
Stream size : 37.3 MiB (4%)
Menu

If your ratio falls below 0.3, you will not be able to download Torrents! More about the rating.

[erzsebet.pl].t728.torrent
Torrent: Registered   [ 2017-12-02 17:13 ]

Download .torrent

Download

21 KB

Status: checked
Completed: 16 times
Size: 4.04 GB
terms.php

#1

02-Dec-2017 17:12

[Profile]  [PM] 
Display posts:    

You cannot post new topics in this forum
You cannot reply to topics in this forum
You cannot edit your posts in this forum
You cannot delete your posts in this forum
You cannot vote in polls in this forum
You cannot attach files in this forum
You can download files in this forum
User agreement
For copyright holders
Advertise on this site

Скачайте на халяву через торрент на трекере erzsebet.pl

!ATTENTION!
The site does not give electronic versions of products, and is engaged only in a collecting and cataloguing of the references sent and published at a forum by our readers. If you are the legal owner of any submitted material and do not wish that the reference to it was in our catalogue, contact us and we shall immediately remove her. Files for an exchange on tracker are given by users of a site, and the administration does not bear the responsibility for their maintenance. The request to not fill in the files protected by copyrights, and also files of the illegal maintenance!