Красные розы для Анжелики / Rose rosse per Angelica / Rote Rosen für Angelika (Стено / Steno) [1968, Италия, Франция, Испания, Приключения, костюмированый, TVRip] VO (SATKUR)

Reply to topic
DL-List and Torrent activity
Size:  1.41 GB   |    Registered:  3 years 3 months   |    Completed:  16 times

Seeder not seen: Never

 
   
 
 
Author Message

erzsebet.org ®

Longevity: 3 years 2 months

Posts: 47596

Post 02-Dec-2017 15:57

[Quote]

Красные розы для Анжелики / Rose rosse per Angelica / Rote Rosen für Angelika
Страна: Италия, Франция, Испания
Жанр: Приключения, костюмированый
Год выпуска: 1968
Продолжительность: 01:41:13
Перевод: Одноголосый закадровый SATKUR
Оригинальная аудиодорожка: нет
Режиссер: Стено / Steno
В ролях: Жак Перрен
Раффаэлла Карра
Карлос Эстрада
Мишель Жирардон
Крис Уэрта
Жак Кастело
Марта Падован
Джулио Бозетти
Марио Феличиани
Энрике Наварро
Описание: Генри де Верлен, очаровательный французский граф, посвящает свое время главным образом разведению красных роз и любви к красивым женщинам. В своем замке он встречает «Марселя», лидера повстанцев, которого ненавидит дворянство за его нападения. После очередного нападения, доктор Дюран, приятель Генри, спрятал раненого Марселя, у него в усадьбе. В итоге, обстоятельства сложились так, что настоящий Марсель умирает, а Генри вынуждено занимает его место, при этом настоящего лидера повстанцев в лицо знает только один человек...
Доп. информация: Перевод с немецкого и озвучивание фильма сделано SATKUR, фильм для перевода предоставила larisa547.
Сэмпл:http://multi-up.com/1177082
Качество видео: TVRip
Формат видео: AVI
Видео: 624x352 (16:9), 25.000 fps, XviD 1792 kbps, 0.326 bit/pixel
Аудио 1: 48 kHz, AC3 Dolby Digital, 2/0 (L,R) ch, ~192.00 kbps - русский

MediaInfo

Общее
Полное имя : D:\FILM\F-2017\Красная роза для Анжелики\Rote.Rosen.fuer.Angelika.1968.[vo.Satkur].AC3.avi
Формат : AVI
Формат/Информация : Audio Video Interleave
Размер файла : 1,41 Гбайт
Продолжительность : 1 ч. 41 м.
Общий поток : 1994 Кбит/сек
Программа кодирования : VirtualDubModRus 1.5.10.2 (build 2542/release)
Библиотека кодирования : VirtualDubMod build 2542/release
Видео
Идентификатор : 0
Формат : MPEG-4 Visual
Профиль формата : Advanced [email protected]
Параметр BVOP формата : 2
Параметр QPel формата : Нет
Параметр GMC формата : Без точки перехода
Параметр матрицы формата : Выборочная
Идентификатор кодека : XVID
Идентификатор кодека/Подсказка : XviD
Продолжительность : 1 ч. 41 м.
Битрейт : 1792 Кбит/сек
Ширина : 624 пикселя
Высота : 352 пикселя
Соотношение сторон : 16:9
Частота кадров : 25,000 кадров/сек
Цветовое пространство : YUV
Субдискретизация насыщенности : 4:2:0
Битовая глубина : 8 бит
Тип развёртки : Прогрессивная
Метод сжатия : С потерями
Бит/(Пиксели*Кадры) : 0.326
Размер потока : 1,27 Гбайт (90%)
Библиотека кодирования : XviD 73
Аудио
Идентификатор : 1
Формат : AC-3
Формат/Информация : Audio Coding 3
Расширение режима : CM (complete main)
Параметр Endianness формата : Big
Идентификатор кодека : 2000
Продолжительность : 1 ч. 41 м.
Вид битрейта : Постоянный
Битрейт : 192 Кбит/сек
Каналы : 2 канала
Расположение каналов : Front: L R
Частота : 48,0 КГц
Битовая глубина : 16 бит
Метод сжатия : С потерями
Размер потока : 139 Мбайт (10%)
Выравнивание : Разделение по промежуткам
Продолжительность промежутка : 40 мс. (1,00 видеокадр)
Время предзагрузки промежутка : 500 мс.

Скриншот c названием фильма

Скриншоты

[erzsebet.pl].t73.torrent
Torrent: Registered [ 2017-12-02 15:58 ] · 423AE1D349423CCA91547F8617B14B3F67DC161C

Download .torrent

Download

15 KB

Status: checked
Completed: 16 times
Size: 1.41 GB
terms.php
[Profile] [PM]
Display posts:    
Reply to topic

Current time is: 03-Mar 17:23

All times are UTC ± 0



You cannot post new topics in this forum
You cannot reply to topics in this forum
You cannot edit your posts in this forum
You cannot delete your posts in this forum
You cannot vote in polls in this forum
You cannot attach files in this forum
You can download files in this forum