Ордер на смерть / Death warrant (Деран Сарафян / Deran Sarafian) [1990, США, боевик, драма, криминал, детектив, BDRip] AVO (Леонид Володарский)

DL-List and Torrent activity
Size:  1.39 GB   |    Registered:  2 years 9 months   |    Completed:  16 times
Seeders:  3  
 
   
 
 

erzsebet.org ®

Longevity:
2 years 9 months
Posts:
47596

[Quote] 

Ордер на смерть / Death warrant
Страна: США
Жанр: боевик, криминал, детектив
Год выпуска: 1990
Продолжительность: 01:29:03
Перевод: Авторский (одноголосый закадровый) Леонид Володарский
Субтитры: нет
Режиссер: Деран Сарафян / Deran Sarafian
В ролях: Жан-Клод Ван Дамм, Роберт Гийом, Синтия Гибб, Джордж Дикерсон, Арт ЛаФлёр, Пэтрик Килпэтрик, Джошуа Джон Миллер, Хэнк Стоун, Конрад Данн
Описание: Однажды детективу Луису Берку удалось поймать очень опасного преступника по прозвищу "Заговоренный". Через некоторое время молодому полицейскому поручили, внедрится под видом заключенного в тюрьму "Харрисон". Об этом рассказывает сюжет фильма "Ордер на смерть". Дело в том, что в этой тюрьме за последнее время, при неясных обстоятельствах, погибли заместитель начальника тюрьмы и девять заключенных. В тюрьме Луис, выдавая себя за уголовника, начинает расследование этого достаточно сложного дела. Несколько заключенных соглашаются ему помогать. В ходе расследования Берк узнает, о многих страшных делах, которые творятся в тюрьме, причем все делается с ведома администрации этого заведения. А охранники принимают в этом активное участие. Чем ближе Луис подбирается к разгадке, того что творится в тюрьме, тем он становится опаснее для некоторых людей. С целью уничтожения детектива в тюрьму переводят "Заговоренного", который рассказывает заключенным, что Берк полицейский. Единственное спасение - это бежать и на свободе уничтожить то страшное, что творится в тюрьме....
Доп. информация: Выражаю огромную благодарность Нордеру за синхронизацию звуковой дорожки. Дорога с Володарским приобретена в сети...
Сэмпл: http://multi-up.com/1173290
Качество видео: BDRip (Исходник BDRemux 1080p)
Формат видео: AVI
Видео: XviD 73, 704x304, (1,85:1), 23,976 fps, 2026 Кбит/с, 8 бит, 0.31 bit/pixel
Аудио: Русский (АС3, 2 ch (Front: L R), 48,0 KHz, 192 Kbps)

MediaInfo

Общее
Полное имя : D:\Видеофильмы\В и д е о\Ордер на смерть (боевик, криминал, детектив 1990 год).avi
Формат : AVI
Формат/Информация : Audio Video Interleave
Размер файла : 1,39 Гбайт
Продолжительность : 1 ч. 29 м.
Общий поток : 2228 Кбит/сек
Программа кодирования : VirtualDubMod 1.5.10.2 (build 2540/release)
Библиотека кодирования : VirtualDubMod build 2540/release
Видео
Идентификатор : 0
Формат : MPEG-4 Visual
Профиль формата : Advanced [email protected]
Параметр BVOP формата : 2
Параметр QPel формата : Нет
Параметр GMC формата : Без точки перехода
Параметр матрицы формата : Выборочная
Идентификатор кодека : XVID
Идентификатор кодека/Подсказка : XviD
Продолжительность : 1 ч. 29 м.
Битрейт : 2026 Кбит/сек
Ширина : 704 пикселя
Высота : 384 пикселя
Соотношение сторон : 1,85:1
Частота кадров : 23,976 (23976/1000) кадра/сек
Цветовое пространство : YUV
Субдискретизация насыщенности : 4:2:0
Битовая глубина : 8 бит
Тип развёртки : Прогрессивная
Метод сжатия : С потерями
Бит/(Пиксели*Кадры) : 0.313
Размер потока : 1,26 Гбайт (91%)
Библиотека кодирования : XviD 1.2.1 (UTC 2008-12-04)
Аудио
Идентификатор : 1
Формат : AC-3
Формат/Информация : Audio Coding 3
Расширение режима : CM (complete main)
Параметр Endianness формата : Big
Идентификатор кодека : 2000
Продолжительность : 1 ч. 29 м.
Вид битрейта : Постоянный
Битрейт : 192 Кбит/сек
Каналы : 2 канала
Расположение каналов : Front: L R
Частота : 48,0 КГц
Частота кадров : 31,250 кадров/сек (1536 spf)
Метод сжатия : С потерями
Размер потока : 122 Мбайт (9%)
Выравнивание : Разделение по промежуткам
Продолжительность промежутка : 42 мс. (1,00 видеокадр)
Время предзагрузки промежутка : 500 мс.

Скриншот c названием фильма

Скриншоты

If your ratio falls below 0.3, you will not be able to download Torrents! More about the rating.

[erzsebet.pl].t730.torrent
Torrent: Registered   [ 2017-12-02 17:13 ]

Download .torrent

Download

14 KB

Status: checked
Completed: 16 times
Size: 1.39 GB
terms.php

#1

02-Dec-2017 17:12

[Profile]  [PM] 
Display posts:    

You cannot post new topics in this forum
You cannot reply to topics in this forum
You cannot edit your posts in this forum
You cannot delete your posts in this forum
You cannot vote in polls in this forum
You cannot attach files in this forum
You can download files in this forum
User agreement
For copyright holders
Advertise on this site

Скачайте на халяву через торрент на трекере erzsebet.pl

!ATTENTION!
The site does not give electronic versions of products, and is engaged only in a collecting and cataloguing of the references sent and published at a forum by our readers. If you are the legal owner of any submitted material and do not wish that the reference to it was in our catalogue, contact us and we shall immediately remove her. Files for an exchange on tracker are given by users of a site, and the administration does not bear the responsibility for their maintenance. The request to not fill in the files protected by copyrights, and also files of the illegal maintenance!