Помни / Memento (Кристофер Нолан / Christopher Nolan) [2000, США, триллер, драма, детектив, криминал, BDRip] MVO (ОРТ)

DL-List and Torrent activity
Size:  1.45 GB   |    Registered:  2 years 9 months   |    Completed:  16 times
Seeders:  25   Leechers:  2   Show peers in full details
 
   
 
 

erzsebet.org ®

Longevity:
2 years 9 months
Posts:
47596

[Quote] 

Помни / Memento
Год выпуска: 2000
Страна: США
Жанр: триллер, драма, детектив, криминал
Продолжительность: 01:53:27
Перевод: Профессиональный (многоголосый закадровый) - ОРТ
Субтитры: нет
Режиссер: Кристофер Нолан / Christopher Nolan
В ролях: Гай Пирс / Leonard, Кэрри-Энн Мосс / Natalie, Джо Пантольяно / Teddy, Марк Бун Джуниор / Burt, Стивен Тоболовски / Sammy Jankis, Харриет Сэнсом Харрис / Mrs. Jankis, Каллум Кит Ренни / Dodd, Ларри Холден / Jimmy-Мировая премьера: 5 сентября 2000-Описание: У Леонарда Шелби есть главная цель в жизни. Во что бы то ни стало он должен найти убийцу своей жены. Но огромная проблема препятствует реализации плана. У Леонарда редкая форма амнезии - он не помнит, что произошло пятнадцать минут назад, но отлично помнит все, что было до убийства жены. Теперь его незаменимый друг - фотоаппарат "Полароид" и море записок, которые он вынужден писать сам себе на теле и на бумаге. В расследовании одному не справиться. Но разве можно полагаться на других людей, при такой амнезии? Как избежать ошибки, чтобы месть не коснулась невиновных?-Видеоряд: Мементо / Memento (2000) BDRip-Огромная благодарность:
pasific2013 - личная запись фильма с телеканала ОРТ через видеомагнитофон и оцифровка звука с видеокассеты.
JUSTKANT - синхронизация перевода.-ДАННЫЙ ПЕРЕВОД НА ТРЕКЕРЕ ПОЯВЛЯЕТСЯ ВПЕРВЫЕ.
На русский язык фильм озвучен кинокомпанией "Селена Интернешнл" по заказу Общественного Российского Телевидения.
Текст читают Владимир Конкин, Рудольф Панков и Ирина Маликова.-
Рейтинг

MPAA: R - Лицам до 17 лет обязательно присутствие взрослого.-Качество видео: BDRip
Формат видео: AVI -> //Сэмпл//
Видео: XviD, 720x304 (2.35:1), 23.976 fps, 1628 kbps
Аудио:
1 - 48 khz, AC3 Dolby Digital, 2/0 (L,R) ch, ~192 kbps [ОРТ] VHSRip-ТВ

MediaInfo

General
Complete name : D:\Помни (ОРТ).avi
Format : AVI
Format/Info : Audio Video Interleave
File size : 1.45 GiB
Duration : 1 h 53 min
Overall bit rate : 1 829 kb/s
Movie name : Помни / Memento (ОРТ)
Director : JUSTKANT
Writing application : VirtualDubMod 1.5.10.3 (build 2550/release)
Copyright : На русский язык фильм озвучен по заказу ОРТ
Comment : Качество звука: VHSRipТВ (pasific2013)
Video
ID : 0
Format : MPEG-4 Visual
Format profile : Advanced [email protected]
Format settings, BVOP : 2
Format settings, QPel : No
Format settings, GMC : No warppoints
Format settings, Matrix : Default (MPEG)
Codec ID : XVID
Codec ID/Hint : XviD
Duration : 1 h 53 min
Bit rate : 1 628 kb/s
Width : 720 pixels
Height : 304 pixels
Display aspect ratio : 2.35:1
Frame rate : 23.976 (24000/1001) FPS
Color space : YUV
Chroma subsampling : 4:2:0
Bit depth : 8 bits
Scan type : Progressive
Compression mode : Lossy
Bits/(Pixel*Frame) : 0.310
Stream size : 1.29 GiB (89%)
Writing library : XviD 1.2.1 (UTC 2008-12-04)
Audio
ID : 1
Format : AC-3
Format/Info : Audio Coding 3
Format settings, Endianness : Big
Codec ID : 2000
Duration : 1 h 53 min
Bit rate mode : Constant
Bit rate : 192 kb/s
Channel(s) : 2 channels
Channel positions : Front: L R
Sampling rate : 48.0 kHz
Frame rate : 31.250 FPS (1536 SPF)
Bit depth : 16 bits
Compression mode : Lossy
Stream size : 156 MiB (10%)
Alignment : Split accross interleaves
Interleave, duration : 42 ms (1.00 video frame)
Interleave, preload duratio : 500 ms
Title : ПЕРВЫЙ КАНАЛ: Владимир Конкин, Рудольф Панков и Ирина Маликова
Service kind : Complete Main

Скриншот c названием фильма

Скриншоты

If your ratio falls below 0.3, you will not be able to download Torrents! More about the rating.

[erzsebet.pl].t731.torrent
Torrent: Registered   [ 2017-12-02 17:17 ]

Download .torrent

Download

15 KB

Status: checked
Completed: 16 times
Size: 1.45 GB
terms.php

#1

02-Dec-2017 17:16

[Profile]  [PM] 
Display posts:    

You cannot post new topics in this forum
You cannot reply to topics in this forum
You cannot edit your posts in this forum
You cannot delete your posts in this forum
You cannot vote in polls in this forum
You cannot attach files in this forum
You can download files in this forum
User agreement
For copyright holders
Advertise on this site

Скачайте на халяву через торрент на трекере erzsebet.pl

!ATTENTION!
The site does not give electronic versions of products, and is engaged only in a collecting and cataloguing of the references sent and published at a forum by our readers. If you are the legal owner of any submitted material and do not wish that the reference to it was in our catalogue, contact us and we shall immediately remove her. Files for an exchange on tracker are given by users of a site, and the administration does not bear the responsibility for their maintenance. The request to not fill in the files protected by copyrights, and also files of the illegal maintenance!