Молниеносный / Мерцающий / Человек вспышка / The Glimmer Man (Джон Грэй / John Gray) [1996, США, Боевик, триллер, комедия, криминал, VHSRip] [Full Screen] AVO (Сергей Визгунов)

DL-List and Torrent activity
Size:  1.37 GB   |    Registered:  2 years 9 months   |    Completed:  16 times
Seeders:  2  
 
   
 
 

erzsebet.org ®

Longevity:
2 years 9 months
Posts:
47596

[Quote] 

Молниеносный / Мерцающий / Человек вспышка / The Glimmer Man
[Full Screen]
«Двое хороших полицейских. Одна скверная ситуация»
Страна: США
Жанр: Боевик, триллер, комедия, криминал
Год выпуска: 1996
Продолжительность: 01:30:58
Перевод: Авторский (одноголосый закадровый) Сергей Визгунов (Viking Video)
Субтитры: нет
Режиссер: Джон Грэй / John Gray
В ролях: Стивен Сигал, Кинен Айвори Уэйанс, Джон М.Джексон, Боб Гантон, Брайан Кокс, Мишель Джонсон, Стивен Тоболовски, Питер Джейсон, Райан Катрона, Ричард Гант.
Описание: 1. Охота за серийным убийцей становится еще тяжелее для детективов Джека Коула и Джима Кэмпбэлла. Они стали партнерами. Удары перемежаются с остротами, а юмор не оставит фанатов равнодушными, когда Стивен Сигал играет Коула, а Китен Айвори Уэйенс - Кэмпбэлла в стремительном триллере "Мерцающий". Популярный комик Уэйенс вложил в эту роль все свое остроумие. Герой боевиков Сигал крепко держит марку: его познания в боевых искусствах тесно переплетаются с черным юмором, присущим актеру. Бывший житель Нью-Йорка Коул носит с собой буддистские четки, верит в волшебные элексиры и живет по принципам восточных философий: такого партнера простой парень Кэмпбэлл еще не встречал. Но Кэмпбэллу кажется, что у скрытного Коула есть еще одна тайна: он подозреваемый номер один в этом расследовании!
2. Стивен Сигал, прозванный народом Нико, все также внушительно сдержан и все также бесподобно дерется всеми частями тела. В этом боевике с элементами триллера он снялся в роли полицейского из Нью-Йорка, вызванного в Лос-Анджелес для поимки серийного убийцы. Сигала прикрепляют к чернокожему партнеру Бобу Гантону, и вскоре уникальные способности человека с большими бусами на шее и с косичкой заставляют последнего покопаться в прошлом супермена. Но прошлого практически нет. Тем временем расследование выводит ребят на русскую мафию, а когда выясняется, что одна из жерт ритуальных убийств, связанных с религией, была бывшей женой Сигала, от работы его отстраняют. Поводом, помимо найденных на месте преступления отпечатков пальцев, послужило убийство им пододзреваемого в церкви в порядке самообороны. Сюжет обогащается тем, что маньяк, убивавший несчастных (часто смертельно больных), делая из них как бы мучеников, совершал свои злодеяния по чьему-то приказу. Кто отдает эти страшные приказы - вот что предстоит узнать нашим героям... Своим названием картина обязана фразе персонажа Сигала: "Все, что ты видишь вокруг себя, - джунгли, потом ты видишь вспышку, а затем ты уже мертв". (Иванов М.)
Доп. информация: Оцифровка лицензионной VHS (личный архив) и получение VHSRip alenavova
Эксклюзив для erzsebet.org. При размещении данного релиза на других сайтах ссылка на автора alenavova обязательна.
Релиз
Сэмпл: https://yadi.sk/i/gvxkfLGE3PVibb
Качество видео: VHSRip
Формат видео: AVI
Видео: 704x528 (1.33:1), 25 fps, XviD build 73 ~1949 kbps avg, 0.21 bit/pixel
Аудио: 48 kHz, AC3 Dolby Digital, 2/0 (L,R) ch, ~192 kbps

MediaInfo

Молниеносный - The Glimmer Man [by alenavova].avi
Format : AVI
Format/Info : Audio Video Interleave
File size : 1.37 GiB
Duration : 1 h 30 min
Overall bit rate : 2 151 kb/s
Movie name : Молниеносный - The Glimmer Man [by alenavova]
Director : by alenavova
Writing application : VirtualDubMod 1.5.10.3 | www.virtualdub-fr.org || (build 2550/release)
Copyright : Edich2
Comment : erzsebet.org
Video
ID : 0
Format : MPEG-4 Visual
Format profile : Advanced [email protected]
Format settings, BVOP : 2
Format settings, QPel : No
Format settings, GMC : No warppoints
Format settings, Matrix : Custom
Codec ID : XVID
Codec ID/Hint : XviD
Duration : 1 h 30 min
Bit rate : 1 950 kb/s
Width : 704 pixels
Height : 528 pixels
Display aspect ratio : 4:3
Frame rate : 25.000 FPS
Color space : YUV
Chroma subsampling : 4:2:0
Bit depth : 8 bits
Scan type : Progressive
Compression mode : Lossy
Bits/(Pixel*Frame) : 0.210
Stream size : 1.24 GiB (91%)
Writing library : XviD 73
Audio
ID : 1
Format : AC-3
Format/Info : Audio Coding 3
Format settings, Endianness : Big
Codec ID : 2000
Duration : 1 h 30 min
Bit rate mode : Constant
Bit rate : 192 kb/s
Channel(s) : 2 channels
Channel positions : Front: L R
Sampling rate : 48.0 kHz
Frame rate : 31.250 FPS (1536 spf)
Bit depth : 16 bits
Compression mode : Lossy
Stream size : 125 MiB (9%)
Alignment : Split accross interleaves
Interleave, duration : 40 ms (1.00 video frame)
Interleave, preload duratio : 500 ms
Service kind : Complete Main

Скриншоты


If your ratio falls below 0.3, you will not be able to download Torrents! More about the rating.

[erzsebet.pl].t733.torrent
Torrent: Registered   [ 2017-12-02 17:17 ]

Download .torrent

Download

14 KB

Status: checked
Completed: 16 times
Size: 1.37 GB
terms.php

#1

02-Dec-2017 17:16

[Profile]  [PM] 
Display posts:    

You cannot post new topics in this forum
You cannot reply to topics in this forum
You cannot edit your posts in this forum
You cannot delete your posts in this forum
You cannot vote in polls in this forum
You cannot attach files in this forum
You can download files in this forum
User agreement
For copyright holders
Advertise on this site

Скачайте на халяву через торрент на трекере erzsebet.pl

!ATTENTION!
The site does not give electronic versions of products, and is engaged only in a collecting and cataloguing of the references sent and published at a forum by our readers. If you are the legal owner of any submitted material and do not wish that the reference to it was in our catalogue, contact us and we shall immediately remove her. Files for an exchange on tracker are given by users of a site, and the administration does not bear the responsibility for their maintenance. The request to not fill in the files protected by copyrights, and also files of the illegal maintenance!