Бойцовая рыбка / Rumble Fish (Фрэнсис Форд Коппола / Francis Ford Coppola) [1983, США, драма, HDRip] MVO (Россия) + MVO (СТС)

DL-List and Torrent activity
Size:  1.45 GB   |    Registered:  2 years 9 months   |    Completed:  16 times
Seeders:  5  
 
   
 
 

erzsebet.org ®

Longevity:
2 years 9 months
Posts:
47596

[Quote] 

Бойцовая рыбка / Rumble Fish
Год выпуска: 1983
Страна: США
Жанр: драма
Продолжительность: 01:36:07
Перевод: Профессиональный (многоголосый закадровый) - Россия
Перевод 2: Профессиональный (многоголосый закадровый) - СТС
Субтитры: нет
Режиссер: Фрэнсис Форд Коппола / Francis Ford Coppola
В ролях: Мэтт Диллон / Rusty James, Микки Рурк / The Motorcycle Boy, Дайан Лэйн / Patty, Деннис Хоппер / Father, Дайана Скаруид / Cassandra, Винсент Спано / Steve, Николас Кейдж / Smokey, Крис Пенн / B.J. Jackson, Лоренс Фишбёрн / Midget, Уильям Смит / Patterson the Cop-Мировая премьера: 7 декабря 1983-Описание: Лидер молодежной уличной банды Расти Джеймс привык жить в тени своего старшего брата, бывшего лидера группировки по прозвищу Мотоциклист. Всем своим существованием Расти пытается доказать, что он стоит своего старшего брата, что он тоже является идеальным вождем для уличных бойцов. Расти и его друзья живут в неспокойных кварталах, где напряжение висит в воздухе. Одно слово, одно движение может послужить поводом для массовой драки. Обитатели этих кварталов своим поведением напоминают маленьких экзотических бойцовых рыбок, которые без видимой причины нападают друг на друга, оказавшись рядом, или атакуют собственное отражение в стекле аквариума... Когда Расти попадает в большую переделку, загадочный Мотоциклист появляется ниоткуда, чтобы помочь младшему брату и навести порядок на улицах...-Огромная благодарность:
derdevil13 - видеоряд.
pasific2013 - личная запись фильма с телеканала Россия в 2004 году через видеомагнитофон и оцифровка звука с видеокассеты.
flaSI-I - личная запись перевода СТС с телеканала Че через спутниковое телевидение.
JUSTKANT - синхронизация переводов.-Данные переводы на трекере появляются впервые..-На русский язык фильм озвучен по заказу телеканала Россия в 2004 году.
Текст читают Андрей Казанцев, Олег Форостенко, Александр Груздев и Наталья Казначеева.-
Рейтинг

MPAA: R - Лицам до 17 лет обязательно присутствие взрослого.-Качество видео: HDRip
Формат видео: AVI -> //Сэмпл//
Видео: XviD, 704x384 (1.85:1), 23.976 fps, 1775 kbps
Аудио:
1 - 48 khz, AC3 Dolby Digital, 2/0 (L,R) ch, ~192 kbps [Россия] VHSRip-ТВ
2 - 48 khz, AC3 Dolby Digital, 2/0 (L,R) ch, ~192 kbps [СТС / Культура / Че] SATRip

MediaInfo

General
Complete name : D:\Бойцовая рыбка (Россия + СТС).avi
Format : AVI
Format/Info : Audio Video Interleave
File size : 1.45 GiB
Duration : 1 h 36 min
Overall bit rate : 2 165 kb/s
Movie name : Бойцовая рыбка / Rumble Fish (Россия + СТС)
Director : JUSTKANT
Writing application : VirtualDubMod 1.5.10.3 (build 2550/release)
Copyright : На русский язык фильм озвучен по заказу телеканала "Россия" в 2004 году
Comment : Качество звука: Россия - VHSRip-ТВ (pasific2013) и СТС (запись с Че) - SATRip (flaSI-I)
Video
ID : 0
Format : MPEG-4 Visual
Format profile : Advanced [email protected]
Format settings, BVOP : 2
Format settings, QPel : No
Format settings, GMC : No warppoints
Format settings, Matrix : Custom
Codec ID : XVID
Codec ID/Hint : XviD
Duration : 1 h 36 min
Bit rate : 1 775 kb/s
Width : 704 pixels
Height : 384 pixels
Display aspect ratio : 1.85:1
Frame rate : 23.976 (24000/1001) FPS
Color space : YUV
Chroma subsampling : 4:2:0
Bit depth : 8 bits
Scan type : Progressive
Compression mode : Lossy
Bits/(Pixel*Frame) : 0.274
Stream size : 1.19 GiB (82%)
Writing library : XviD 73
Audio #1
ID : 1
Format : AC-3
Format/Info : Audio Coding 3
Format settings, Endianness : Big
Codec ID : 2000
Duration : 1 h 34 min
Bit rate mode : Constant
Bit rate : 192 kb/s
Channel(s) : 2 channels
Channel positions : Front: L R
Sampling rate : 48.0 kHz
Frame rate : 31.250 FPS (1536 SPF)
Bit depth : 16 bits
Compression mode : Lossy
Stream size : 129 MiB (9%)
Alignment : Split accross interleaves
Interleave, duration : 43 ms (1.02 video frame)
Interleave, preload duratio : 500 ms
Title : Россия: Андрей Казанцев, Олег Форостенко, Александр Груздев и Наталья Казначеева
Service kind : Complete Main
Audio #2
ID : 2
Format : AC-3
Format/Info : Audio Coding 3
Format settings, Endianness : Big
Codec ID : 2000
Duration : 1 h 34 min
Bit rate mode : Constant
Bit rate : 192 kb/s
Channel(s) : 2 channels
Channel positions : Front: L R
Sampling rate : 48.0 kHz
Frame rate : 31.250 FPS (1536 SPF)
Bit depth : 16 bits
Compression mode : Lossy
Stream size : 129 MiB (9%)
Alignment : Split accross interleaves
Interleave, duration : 43 ms (1.02 video frame)
Interleave, preload duratio : 500 ms
Title : СТС/Культура/Че (SATRip)
Service kind : Complete Main

Скриншот c названием фильма

Скриншоты

If your ratio falls below 0.3, you will not be able to download Torrents! More about the rating.

[erzsebet.pl].t738.torrent
Torrent: Registered   [ 2017-12-02 17:13 ]

Download .torrent

Download

15 KB

Status: checked
Completed: 16 times
Size: 1.45 GB
terms.php

#1

02-Dec-2017 17:12

[Profile]  [PM] 
Display posts:    

You cannot post new topics in this forum
You cannot reply to topics in this forum
You cannot edit your posts in this forum
You cannot delete your posts in this forum
You cannot vote in polls in this forum
You cannot attach files in this forum
You can download files in this forum
User agreement
For copyright holders
Advertise on this site

Скачайте на халяву через торрент на трекере erzsebet.pl

!ATTENTION!
The site does not give electronic versions of products, and is engaged only in a collecting and cataloguing of the references sent and published at a forum by our readers. If you are the legal owner of any submitted material and do not wish that the reference to it was in our catalogue, contact us and we shall immediately remove her. Files for an exchange on tracker are given by users of a site, and the administration does not bear the responsibility for their maintenance. The request to not fill in the files protected by copyrights, and also files of the illegal maintenance!