Похищение в семье / Похищение / A Kidnapping in the Family (Колин Бакси / Colin Bucksey) [1996, США, Канада, Драма, SATRip] AVO (Петр Карцев) + (Леонид Володарский)

DL-List and Torrent activity
Size:  1.49 GB   |    Registered:  2 years 9 months   |    Completed:  16 times
Seeders:  2  
 
   
 
 

erzsebet.org ®

Longevity:
2 years 9 months
Posts:
47596

[Quote] 

Похищение в семье / Похищение / A Kidnapping in the Family
Страна: США, Канада
Жанр: Драма
Год выпуска: 1996
Продолжительность: 01:26:36
Перевод: Авторский (одноголосый закадровый) Петр Карцев
Перевод 2: Авторский (одноголосый закадровый) Леонид Володарский
Субтитры: нет
Оригинальная аудиодорожка: нет
Режиссер: Колин Бакси / Colin Bucksey
В ролях: Трэйси Голд, Кейт Джексон, Джефф Ягер, Роберт Бишоп, Лора Харрис, Майкл Хоган, Мэтт Хилл, Чилтон Крэйн, Анна Фергюсон, Бен Рэтнер
Описание:
Сара Лэндерс любит вечеринки. Но когда до ее матери ДиДи доходят слухи, что Сара связалась с торговцем наркотиками, она увозит ее маленького сына Кайла.
Опасения ДиДи еще больше усиливаются после сбивчивого рассказа Кайла о пугающих событиях, которые он видел. Но факты оказываются вымыслом, добродетель — злом, а самый близкий человек — исчадием ада. Фильм основан на реальных событиях…
Доп. информация: Дорожка с П. Карцевым синхронизирована и наложена ale_x2008 при помощи Adobe Audition, Sony Vegas и VirtualDubMod. Восстановлен правильный тон переводчика.
За оцифрованную с VHS дорожку благодарим - Fikaloid

Дорожка с Л. Володарским синхронизирована и наложена ale_x2008 при помощи Sony Vegas и VirtualDubMod.
За оцифрованную с VHS дорожку благодарим - alenavova
Релиз
Сэмпл: https://yadi.sk/i/JNOBji4Y3PTnJv
Качество видео: SATRip by CG
Формат видео: AVI
Видео: XviD build 65, 640x480 (1.33:1), 23.976 fps, 2058 kbps avg, 0.28 bit/pixel
Аудио: AC3 Dolby Digital, 48000 Hz, 2/0 (L,R) ch (stereo), 192.00 kbps avg
Аудио 2: AC3 Dolby Digital, 48000Hz 2/0 (L,R) ch (mono), 192.00 kbps avg Володарский

MediaInfo

Похищение - A Kidnapping in the Family (by ale_x2008).avi
Format : AVI
Format/Info : Audio Video Interleave
File size : 1.37 GiB
Duration : 1h 26mn
Overall bit rate : 2 260 Kbps
Movie name : Похищение - A Kidnapping in the Family (by ale_x2008)
Director : by ale_x2008
Writing application : VirtualDubMod 1.5.10.3 (build 2550/release)
Copyright : Edich2
Comment : erzsebet.org
Video
ID : 0
Format : MPEG-4 Visual
Format profile : Advanced [email protected]
Format settings, BVOP : 1
Format settings, QPel : No
Format settings, GMC : No warppoints
Format settings, Matrix : Default (MPEG)
Codec ID : XVID
Codec ID/Hint : XviD
Duration : 1h 26mn
Bit rate : 2 059 Kbps
Width : 640 pixels
Height : 480 pixels
Display aspect ratio : 4:3
Frame rate : 23.976 fps
Color space : YUV
Chroma subsampling : 4:2:0
Bit depth : 8 bits
Scan type : Progressive
Compression mode : Lossy
Bits/(Pixel*Frame) : 0.280
Stream size : 1.25 GiB (91%)
Writing library : XviD 65
Audio
ID : 1
Format : AC-3
Format/Info : Audio Coding 3
Mode extension : CM (complete main)
Format settings, Endianness : Big
Codec ID : 2000
Duration : 1h 26mn
Bit rate mode : Constant
Bit rate : 192 Kbps
Channel(s) : 2 channels
Channel positions : Front: L R
Sampling rate : 48.0 KHz
Bit depth : 16 bits
Compression mode : Lossy
Stream size : 119 MiB (8%)
Alignment : Split accross interleaves
Interleave, duration : 42 ms (1.00 video frame)
Interleave, preload duration : 500 ms
Audio
ID : 2
Format : AC-3
Format/Info : Audio Coding 3
Mode extension : CM (complete main)
Format settings, Endianness : Big
Codec ID : 2000
Duration : 1h 26mn
Bit rate mode : Constant
Bit rate : 192 Kbps
Channel(s) : 2 channels
Channel positions : Front: L R
Sampling rate : 48.0 KHz
Bit depth : 16 bits
Compression mode : Lossy
Stream size : 119 MiB (8%)
Alignment : Split accross interleaves
Interleave, duration : 42 ms (1.00 video frame)
Interleave, preload duration : 500 ms

Скриншоты


If your ratio falls below 0.3, you will not be able to download Torrents! More about the rating.

[erzsebet.pl].t739.torrent
Torrent: Registered   [ 2017-12-02 17:17 ]

Download .torrent

Download

15 KB

Status: checked
Completed: 16 times
Size: 1.49 GB
terms.php

#1

02-Dec-2017 17:16

[Profile]  [PM] 
Display posts:    

You cannot post new topics in this forum
You cannot reply to topics in this forum
You cannot edit your posts in this forum
You cannot delete your posts in this forum
You cannot vote in polls in this forum
You cannot attach files in this forum
You can download files in this forum
User agreement
For copyright holders
Advertise on this site

Скачайте на халяву через торрент на трекере erzsebet.pl

!ATTENTION!
The site does not give electronic versions of products, and is engaged only in a collecting and cataloguing of the references sent and published at a forum by our readers. If you are the legal owner of any submitted material and do not wish that the reference to it was in our catalogue, contact us and we shall immediately remove her. Files for an exchange on tracker are given by users of a site, and the administration does not bear the responsibility for their maintenance. The request to not fill in the files protected by copyrights, and also files of the illegal maintenance!