Дуэль вертолётов / Duell der Helikopter / Birds of Prey (Уильям А. Грэм / William A. Graham) [1973, США, боевик, VHSRip] VO (Заугаров)

DL-List and Torrent activity
Size:  1.37 GB   |    Registered:  2 years 9 months   |    Completed:  16 times
Seeders:  7  
 
   
 
 

erzsebet.org ®

Longevity:
2 years 9 months
Posts:
47596

[Quote] 

Дуэль вертолётов / Duell der Helikopter / Birds of Prey
Страна: США
Жанр: боевик
Год выпуска: 1973
Продолжительность: 01:17:27
Перевод: Одноголосый закадровый Михаила Заугарова с немецкого дубляжа
Субтитры: нет
Оригинальная аудиодорожка: нет
Режиссер: Уильям А. Грэм /William A. Graham/
В ролях: Дэвид Джэнссен /David Janssen/, Ральф Микер /Ralph Meeker/, Элейн Хейлвейл /Elayne Heilveil/, Гарри Клекас /Harry Klekas/, Сэм Доусон /Sam Dawson/, Дон Уилбэнкс /Don Wilbanks/, Джеймс В. Гэвин /James W. Gavin/
Описание: Бывший военный летчик-истребитель, участник второй мировой войны, преследует на вертолёте преступников, ограбивших банк. рискуя своей жизнью, он проявляет головокружительное мастерство в управлении вертолётом и незаурядное мужество в схватке с гангстерами. (более половины фильма - это красочные съёмки полёта-погони в воздухе...)
Доп. информация: оцифровал и подготовил karlll
Качество видео: VHSRip ~Сэмпл~
Формат видео: AVI
Видео: 688x528 (1.30:1), 25 fps, XviD build 73 ~2332 kbps avg, 0.26 bit/pixel
Аудио: 48 kHz, AC3 Dolby Digital, 2/0 (L,R) ch, ~192 kbps

MediaInfo

Формат : AVI
Формат/Информация : Audio Video Interleave
Размер файла : 1,37 Гбайт
Продолжительность : 1 ч. 17 м.
Общий поток : 2534 Кбит/сек
Название фильма : Birds of Prey (1973)
Программа кодирования : VirtualDubMod 1.5.10.3 | www.virtualdub-fr.org || (build 2550/release)
Библиотека кодирования : VirtualDubMod build 2550/release
Правообладатель : Karl's Bayou Country
Видео
Идентификатор : 0
Формат : MPEG-4 Visual
Профиль формата : Advanced [email protected]
Параметр BVOP формата : 2
Параметр QPel формата : Нет
Параметр GMC формата : Без точки перехода
Параметр матрицы формата : Выборочная
Идентификатор кодека : XVID
Идентификатор кодека/Подсказка : XviD
Продолжительность : 1 ч. 17 м.
Битрейт : 2333 Кбит/сек
Ширина : 688 пикселей
Высота : 528 пикселей
Соотношение сторон : 4:3
Частота кадров : 25,000 кадров/сек
Цветовое пространство : YUV
Субдискретизация насыщенности : 4:2:0
Битовая глубина : 8 бит
Тип развёртки : Прогрессивная
Метод сжатия : С потерями
Бит/(Пиксели*Кадры) : 0.257
Размер потока : 1,26 Гбайт (92%)
Библиотека кодирования : XviD 73
Аудио
Идентификатор : 1
Формат : AC-3
Формат/Информация : Audio Coding 3
Расширение режима : CM (complete main)
Параметр Endianness формата : Big
Идентификатор кодека : 2000
Продолжительность : 1 ч. 17 м.
Вид битрейта : Постоянный
Битрейт : 192 Кбит/сек
Каналы : 2 канала
Расположение каналов : Front: L R
Частота : 48,0 КГц
Битовая глубина : 16 бит
Метод сжатия : С потерями
Размер потока : 106 Мбайт (8%)
Выравнивание : Разделение по промежуткам
Продолжительность промежутка : 40 мс. (1,00 видеокадр)
Время предзагрузки промежутка : 500 мс.

Скриншоты

If your ratio falls below 0.3, you will not be able to download Torrents! More about the rating.

[erzsebet.pl].t740.torrent
Torrent: Registered   [ 2017-12-02 17:13 ]

Download .torrent

Download

14 KB

Status: checked
Completed: 16 times
Size: 1.37 GB
terms.php

#1

02-Dec-2017 17:12

[Profile]  [PM] 
Display posts:    

You cannot post new topics in this forum
You cannot reply to topics in this forum
You cannot edit your posts in this forum
You cannot delete your posts in this forum
You cannot vote in polls in this forum
You cannot attach files in this forum
You can download files in this forum
User agreement
For copyright holders
Advertise on this site

Скачайте на халяву через торрент на трекере erzsebet.pl

!ATTENTION!
The site does not give electronic versions of products, and is engaged only in a collecting and cataloguing of the references sent and published at a forum by our readers. If you are the legal owner of any submitted material and do not wish that the reference to it was in our catalogue, contact us and we shall immediately remove her. Files for an exchange on tracker are given by users of a site, and the administration does not bear the responsibility for their maintenance. The request to not fill in the files protected by copyrights, and also files of the illegal maintenance!