Теплый летний дождь / Warm Summer Rain (Джо Гэйтон / Joe Gayton) [1989, США, мелодрама, VHSRip] [Full Screen] AVO (Антон Алексеев)

DL-List and Torrent activity
Size:  1.37 GB   |    Registered:  2 years 9 months   |    Completed:  16 times
Seeders:  4  
 
   
 
 

erzsebet.org ®

Longevity:
2 years 9 months
Posts:
47596

[Quote] 

Теплый летний дождь / Warm Summer Rain
[Full Screen]
Страна: США
Жанр: мелодрама
Год выпуска: 1989
Продолжительность: 01:21:03
Перевод: Авторский (одноголосый закадровый) Антон Алексеев
Субтитры: нет
Режиссер: Джо Гэйтон / Joe Gayton
В ролях: Келли Линч, Барри Табб, Рон Слоун, Ларри Пойндекстер, Люпе Амадор, Питер МакФерсон, Ванесса Конти
Описание: Кэйт уехала куда глаза глядят. Вышла из автобуса где захотелось. Пошла пешком наугад - в никуда. Рядом остановилась машина, и парень, сидящий в ней, оказался тем человеком, которого Кэйт искала всю свою предыдущую жизнь. Но только когда его не стало, она поняла, что не знает даже, как его зовут. Но проснувшись однажды утром, она вновь увидела его рядом с собой...
Доп. информация: Оцифровка VHS (личный архив) и получение VHSRip alenavova
Эксклюзив для erzsebet.org. При размещении данного релиза на других сайтах ссылка на автора alenavova обязательна.
Релиз
Сэмпл: https://yadi.sk/i/cF884zft3P225C
Качество видео: VHSRip
Формат видео: AVI
Видео: 704x544 (1.29:1), 25 fps, XviD build 73 ~2212 kbps avg, 0.23 bit/pixel
Аудио: 48 kHz, AC3 Dolby Digital, 2/0 (L,R) ch, ~192 kbps

MediaInfo

Теплый, летний дождь - Warm Summer Rain [by alenavova].avi
Format : AVI
Format/Info : Audio Video Interleave
File size : 1.37 GiB
Duration : 1 h 21 min
Overall bit rate : 2 415 kb/s
Movie name : Теплый, летний дождь - Warm Summer Rain [by alenavova]
Director : by alenavova
Writing application : VirtualDubMod 1.5.10.3 | www.virtualdub-fr.org || (build 2550/release)
Copyright : Edich2
Comment : erzsebet.org
Video
ID : 0
Format : MPEG-4 Visual
Format profile : Advanced [email protected]
Format settings, BVOP : 2
Format settings, QPel : No
Format settings, GMC : No warppoints
Format settings, Matrix : Custom
Codec ID : XVID
Codec ID/Hint : XviD
Duration : 1 h 21 min
Bit rate : 2 213 kb/s
Width : 704 pixels
Height : 544 pixels
Display aspect ratio : 1.294
Frame rate : 25.000 FPS
Color space : YUV
Chroma subsampling : 4:2:0
Bit depth : 8 bits
Scan type : Progressive
Compression mode : Lossy
Bits/(Pixel*Frame) : 0.231
Stream size : 1.25 GiB (92%)
Writing library : XviD 73
Audio
ID : 1
Format : AC-3
Format/Info : Audio Coding 3
Format settings, Endianness : Big
Codec ID : 2000
Duration : 1 h 21 min
Bit rate mode : Constant
Bit rate : 192 kb/s
Channel(s) : 2 channels
Channel positions : Front: L R
Sampling rate : 48.0 kHz
Frame rate : 31.250 FPS (1536 spf)
Bit depth : 16 bits
Compression mode : Lossy
Stream size : 111 MiB (8%)
Alignment : Split accross interleaves
Interleave, duration : 40 ms (1.00 video frame)
Interleave, preload duratio : 500 ms
Service kind : Complete Main

Скриншоты



If your ratio falls below 0.3, you will not be able to download Torrents! More about the rating.

[erzsebet.pl].t742.torrent
Torrent: Registered   [ 2017-12-02 17:13 ]

Download .torrent

Download

14 KB

Status: checked
Completed: 16 times
Size: 1.37 GB
terms.php

#1

02-Dec-2017 17:12

[Profile]  [PM] 
Display posts:    

You cannot post new topics in this forum
You cannot reply to topics in this forum
You cannot edit your posts in this forum
You cannot delete your posts in this forum
You cannot vote in polls in this forum
You cannot attach files in this forum
You can download files in this forum
User agreement
For copyright holders
Advertise on this site

Скачайте на халяву через торрент на трекере erzsebet.pl

!ATTENTION!
The site does not give electronic versions of products, and is engaged only in a collecting and cataloguing of the references sent and published at a forum by our readers. If you are the legal owner of any submitted material and do not wish that the reference to it was in our catalogue, contact us and we shall immediately remove her. Files for an exchange on tracker are given by users of a site, and the administration does not bear the responsibility for their maintenance. The request to not fill in the files protected by copyrights, and also files of the illegal maintenance!