Конан-разрушитель / Conan the Destroyer (Ричард Флайшер / Richard Fleischer) [1984, США, фэнтези, боевик, приключения, BDRip] MVO (ОРТ) + VO

DL-List and Torrent activity
Size:  1.46 GB   |    Registered:  2 years 9 months   |    Completed:  16 times
Seeders:  3   Leechers:  1   Show peers in full details
 
   
 
 

erzsebet.org ®

Longevity:
2 years 9 months
Posts:
47596

[Quote] 

Конан-разрушитель / Conan the Destroyer-И увидел Конан лицо своих врагов.
И взглянул им в глаза.
Варвар подобен Скале.
Он открыт всем ветрам.
Но не было силы, способной его превозмочь.
- Год выпуска: 1984
Страна: США
Жанр: фэнтези, боевик, приключения
Продолжительность: 01:41:15
Перевод: Профессиональный (многоголосый закадровый) - ОРТ
Перевод 2: Одноголосый закадровый - Неизвестный
Субтитры: нет
Режиссер: Ричард Флайшер / Richard Fleischer
В ролях: Арнольд Шварценеггер / Conan, Грейс Джонс / Zula, Уилт Чемберлен / Bombaata, Мако / Akiro «The Wizard», Трейси Уолтер / Malak, Оливия д'Або / Princess Jehnna, Сара Дуглас / Queen Taramis, Пэт Роуч / Man Ape / Toth-Amon, Джефф Кори / Grand Vizier, Ферди Мэйн / The Leader-Мировая премьера: 29 июня 1984-Описание: Благородный Конан, отдохнув от ратных дел, вновь берет в руки меч. Конан должен сопровождать юную принцессу Джен в опасном путешествии. Девушка отправляется в таинственный замок колдуна, где хранится огромный алмаз - камень, способный высвобождать силы тьмы. Коварная королева Тарамис приказывает своему преданному воину Бомбате убить Конана и вернуть принцессу во дворец. Девушку должны принести в жертву. Отважному воину предстоит не только спасти жизнь принцессы, но и расправиться с вероломной королевой, чтобы на трон взошла достойнейшая Джен.-Огромная благодарность:
edich2 - видеоряд.
Sp1end1d - личная запись фильма с телеканала ОРТ через видеомагнитофон и оцифровка звука с видеокассеты.
Nekontroliruemij_devil - личная оцифровка Неизвестного со своей видеокассеты.
JUSTKANT - синхронизация переводов.-Данные переводы на трекере появляются впервые..-На русский язык фильм озвучен кинокомпанией "Селена Интернешнл" по заказу Общественного Российского Телевидения.
Текст читают Александр Рахленко, Олег Куценко, Александр Груздев, Ольга Зубкова и Светлана Старикова.-
Рейтинг

MPAA: PG - Рекомендуется присутствие родителей.-Качество видео: BDRip
Формат видео: AVI -> //Сэмпл//
Видео: XviD, 720x304 (2.35:1), 23.976 fps, 1666 kbps
Аудио:
1 - 48 khz, AC3 Dolby Digital, 2/0 (L,R) ch, ~192 kbps [ОРТ] VHSRip-ТВ
2 - 48 khz, AC3 Dolby Digital, 2/0 (L,R) ch, ~192 kbps [Неизвестный] VHSRip

MediaInfo

General
Complete name : D:\Конан-разрушитель (ОРТ + Иванов).avi
Format : AVI
Format/Info : Audio Video Interleave
File size : 1.46 GiB
Duration : 1 h 41 min
Overall bit rate : 2 065 kb/s
Movie name : Конан-разрушитель / Conan the Destroyer (ОРТ + Иванов)
Director : JUSTKANT
Writing application : VirtualDubMod 1.5.10.3 (build 2550/release)
Copyright : На русский язык фильм озвучен кинокомпанией "Селена Интернешнл" по заказу ОРТ
Comment : Качество звука: ОРТ - VHSRip-ТВ (Sp1end1d) и Иванов - VHSRip (AlexYounDirector aka Nekontroliruemij_devil)
Video
ID : 0
Format : MPEG-4 Visual
Format profile : Advanced [email protected]
Format settings, BVOP : 1
Format settings, QPel : No
Format settings, GMC : No warppoints
Format settings, Matrix : Custom
Codec ID : XVID
Codec ID/Hint : XviD
Duration : 1 h 41 min
Bit rate : 1 666 kb/s
Width : 720 pixels
Height : 304 pixels
Display aspect ratio : 2.35:1
Frame rate : 23.976 (24000/1001) FPS
Color space : YUV
Chroma subsampling : 4:2:0
Bit depth : 8 bits
Scan type : Progressive
Compression mode : Lossy
Bits/(Pixel*Frame) : 0.318
Stream size : 1.18 GiB (81%)
Writing library : XviD 72
Audio #1
ID : 1
Format : AC-3
Format/Info : Audio Coding 3
Format settings, Endianness : Big
Codec ID : 2000
Duration : 1 h 41 min
Bit rate mode : Constant
Bit rate : 192 kb/s
Channel(s) : 2 channels
Channel positions : Front: L R
Sampling rate : 48.0 kHz
Frame rate : 31.250 FPS (1536 SPF)
Bit depth : 16 bits
Compression mode : Lossy
Stream size : 139 MiB (9%)
Alignment : Split accross interleaves
Interleave, duration : 42 ms (1.00 video frame)
Interleave, preload duratio : 500 ms
Title : ОРТ: Александр Рахленко, Олег Куценко, Александр Груздев, Ольга Зубкова и Светлана Старикова
Service kind : Complete Main
Audio #2
ID : 2
Format : AC-3
Format/Info : Audio Coding 3
Format settings, Endianness : Big
Codec ID : 2000
Duration : 1 h 41 min
Bit rate mode : Constant
Bit rate : 192 kb/s
Channel(s) : 2 channels
Channel positions : Front: L R
Sampling rate : 48.0 kHz
Frame rate : 31.250 FPS (1536 SPF)
Bit depth : 16 bits
Compression mode : Lossy
Stream size : 139 MiB (9%)
Alignment : Split accross interleaves
Interleave, duration : 42 ms (1.00 video frame)
Interleave, preload duratio : 500 ms
Title : Михаил Иванов (VHSRip)
Service kind : Complete Main

Скриншот c названием фильма

Скриншоты

If your ratio falls below 0.3, you will not be able to download Torrents! More about the rating.

[erzsebet.pl].t744.torrent
Torrent: Registered   [ 2017-12-02 17:13 ]

Download .torrent

Download

15 KB

Status: checked
Completed: 16 times
Size: 1.46 GB
terms.php

#1

02-Dec-2017 17:12

[Profile]  [PM] 
Display posts:    

You cannot post new topics in this forum
You cannot reply to topics in this forum
You cannot edit your posts in this forum
You cannot delete your posts in this forum
You cannot vote in polls in this forum
You cannot attach files in this forum
You can download files in this forum
User agreement
For copyright holders
Advertise on this site

Скачайте на халяву через торрент на трекере erzsebet.pl

!ATTENTION!
The site does not give electronic versions of products, and is engaged only in a collecting and cataloguing of the references sent and published at a forum by our readers. If you are the legal owner of any submitted material and do not wish that the reference to it was in our catalogue, contact us and we shall immediately remove her. Files for an exchange on tracker are given by users of a site, and the administration does not bear the responsibility for their maintenance. The request to not fill in the files protected by copyrights, and also files of the illegal maintenance!