Безумный Макс 2: Воин дороги / Mad Max 2: The Road Warrior (Джордж Миллер /George Miller) [1981, США, боевик, триллер, BDRip] AVO (Виктор Махонько) + AVO (Алексей Михалев) + AVO (Леонид Володарский) + AVO (Дмитрий Пучков) + Original Eng + Sub (Rus)

DL-List and Torrent activity
Size:  2.06 GB   |    Registered:  2 years 9 months   |    Completed:  16 times
Seeders:  6  
 
   
 
 

erzsebet.org ®

Longevity:
2 years 9 months
Posts:
47596

[Quote] 

Безумный Макс 2: Воин дороги / Mad Max 2: The Road Warrior
Страна: США
Жанр: боевик, приключения
Год выпуска: 1981
Продолжительность: 01:35:30
Перевод: Авторский (одноголосый закадровый) Виктор Махонько
Перевод 2: Авторский (одноголосый закадровый) Алексей Михалев
Перевод 3: Авторский (одноголосый закадровый) Леонид Володарский
Перевод 4: Авторский (одноголосый закадровый) Дмитрий Пучков (отдельно)
Субтитры: Русские (Пучков)
Оригинальная аудиодорожка: Английский (отдельно)
Режиссер: Джордж Миллер / George Miller
В ролях: Мэл Гибсон, Брюс Спенс, Майкл Престон, Макс Фиппс, Вернон Уэллс, Кьелль Нилссон, Эмиль Минти, Вирджиния Хей, Уильям Заппа
Описание: Человеческую цивилизацию постигла ужасная катастрофа, страшнее ядерной войны. Все города парализованы энергетическим кризисом. Борясь за топливо в ход пускаются любые средства… В поисках бензина бродит по далекой Австралии и одинокий водитель по имени Макс. Всюду брошенные здания, рухлядь, оставленные автомобили и прочая рухлядь. Макс натыкается на целую станцию со складом горючего, где измученные голодом и горем люди всеми силами охраняют принадлежащее им имущество. Неожиданно на этот лагерь нападают разъяренные бандиты во главе которых стоит некий Гумундус, садист и душегуб. Макс решает вступить с ними в схватку…
Доп. информация: За предоставленную дорогу с Моханько благодарим vilkus
Сэмпл: http://multi-up.com/1173143
Качество видео: BDRip (Исходник BDRemux 1080p)
Формат видео: AVI
Видео: XviD 73, 720x304, (2,35:1), 23,976 fps, 1593 Кбит/с, 8 бит, 0.30 bit/pixel
Аудио: Русский (АС3, 2 ch (Front: L R), 48,0 KHz, 192 Kbps)
Аудио 2: Русский (АС3, 2 ch (Front: L R), 48,0 KHz, 192 Kbps)
Аудио 3: Русский (АС3, 2 ch (Front: L R), 48,0 KHz, 192 Kbps)
Аудио 4: Русский (АС3, 6 ch (Front: L C R, Side: L R, LFE), 48,0 KHz, 448 Kbps) Дмитрий Пучков (отдельно)
Аудио 5: Английский (АС3, 6 ch (Front: L C R, Side: L R, LFE), 48,0 KHz, 448 Kbps) Original (отдельно)

MediaInfo

Общее
Полное имя : D:\Видеофильмы\В и д е о\Безумный Макс 2 Воин дороги (боевик, приключения 1981 год).avi
Формат : AVI
Формат/Информация : Audio Video Interleave
Размер файла : 1,46 Гбайт
Продолжительность : 1 ч. 35 м.
Общий поток : 2188 Кбит/сек
Программа кодирования : VirtualDubMod 1.5.10.2 (build 2540/release)
Библиотека кодирования : VirtualDubMod build 2540/release
Видео
Идентификатор : 0
Формат : MPEG-4 Visual
Профиль формата : Advanced [email protected]
Параметр BVOP формата : 2
Параметр QPel формата : Нет
Параметр GMC формата : Без точки перехода
Параметр матрицы формата : Выборочная
Идентификатор кодека : XVID
Идентификатор кодека/Подсказка : XviD
Продолжительность : 1 ч. 35 м.
Битрейт : 1593 Кбит/сек
Ширина : 720 пикселей
Высота : 304 пикселя
Соотношение сторон : 2,35:1
Частота кадров : 23,976 (23976/1000) кадра/сек
Цветовое пространство : YUV
Субдискретизация насыщенности : 4:2:0
Битовая глубина : 8 бит
Тип развёртки : Прогрессивная
Метод сжатия : С потерями
Бит/(Пиксели*Кадры) : 0.304
Размер потока : 1,06 Гбайт (73%)
Библиотека кодирования : XviD 73
Аудио #1
Идентификатор : 1
Формат : AC-3
Формат/Информация : Audio Coding 3
Расширение режима : CM (complete main)
Параметр Endianness формата : Big
Идентификатор кодека : 2000
Продолжительность : 1 ч. 35 м.
Вид битрейта : Постоянный
Битрейт : 192 Кбит/сек
Каналы : 2 канала
Расположение каналов : Front: L R
Частота : 48,0 КГц
Частота кадров : 31,250 кадров/сек (1536 spf)
Метод сжатия : С потерями
Размер потока : 131 Мбайт (9%)
Выравнивание : Разделение по промежуткам
Продолжительность промежутка : 42 мс. (1,00 видеокадр)
Время предзагрузки промежутка : 500 мс.
Аудио #2
Идентификатор : 2
Формат : AC-3
Формат/Информация : Audio Coding 3
Расширение режима : CM (complete main)
Параметр Endianness формата : Big
Идентификатор кодека : 2000
Продолжительность : 1 ч. 35 м.
Вид битрейта : Постоянный
Битрейт : 192 Кбит/сек
Каналы : 2 канала
Расположение каналов : Front: L R
Частота : 48,0 КГц
Частота кадров : 31,250 кадров/сек (1536 spf)
Метод сжатия : С потерями
Размер потока : 131 Мбайт (9%)
Выравнивание : Разделение по промежуткам
Продолжительность промежутка : 42 мс. (1,00 видеокадр)
Время предзагрузки промежутка : 500 мс.
Аудио #3
Идентификатор : 3
Формат : AC-3
Формат/Информация : Audio Coding 3
Расширение режима : CM (complete main)
Параметр Endianness формата : Big
Идентификатор кодека : 2000
Продолжительность : 1 ч. 35 м.
Вид битрейта : Постоянный
Битрейт : 192 Кбит/сек
Каналы : 2 канала
Расположение каналов : Front: L R
Частота : 48,0 КГц
Частота кадров : 31,250 кадров/сек (1536 spf)
Метод сжатия : С потерями
Размер потока : 131 Мбайт (9%)
Выравнивание : Разделение по промежуткам
Продолжительность промежутка : 42 мс. (1,00 видеокадр)
Время предзагрузки промежутка : 500 мс.

Скриншот c названием фильма

Скриншоты

If your ratio falls below 0.3, you will not be able to download Torrents! More about the rating.

[erzsebet.pl].t748.torrent
Torrent: Registered   [ 2017-12-02 17:13 ]

Download .torrent

Download

11 KB

Status: checked
Completed: 16 times
Size: 2.06 GB
terms.php

#1

02-Dec-2017 17:12

[Profile]  [PM] 
Display posts:    

You cannot post new topics in this forum
You cannot reply to topics in this forum
You cannot edit your posts in this forum
You cannot delete your posts in this forum
You cannot vote in polls in this forum
You cannot attach files in this forum
You can download files in this forum
User agreement
For copyright holders
Advertise on this site

Скачайте на халяву через торрент на трекере erzsebet.pl

!ATTENTION!
The site does not give electronic versions of products, and is engaged only in a collecting and cataloguing of the references sent and published at a forum by our readers. If you are the legal owner of any submitted material and do not wish that the reference to it was in our catalogue, contact us and we shall immediately remove her. Files for an exchange on tracker are given by users of a site, and the administration does not bear the responsibility for their maintenance. The request to not fill in the files protected by copyrights, and also files of the illegal maintenance!