Абсолон / Absolon (Дэвид Барто / David Barto) [2003, Канада, Великобритания, фантастика, боевик, триллер, HDTVRip] DVO (Союз Видео)

DL-List and Torrent activity
Size:  1.45 GB   |    Registered:  2 years 9 months   |    Completed:  16 times
Seeders:  5   Leechers:  2   Show peers in full details
 
   
 
 

erzsebet.org ®

Longevity:
2 years 9 months
Posts:
47596

[Quote] 

Абсолон / Absolon
Год выпуска: 2003
Страна: Канада, Великобритания
Жанр: фантастика, боевик, триллер
Продолжительность: 01:36:06
Перевод: Профессиональный (двухголосый закадровый) - Союз Видео
Субтитры: нет
Режиссер: Дэвид Барто / David Barto
В ролях: Кристофер Ламберт / Det. Norman Scot, Лу Даймонд Филлипс / Agent Walters, Келли Брук / Dr. Claire Whittaker, Рон Перлман / Murchison, Роберта Анджелика / Det. Ruth Bryant, Невилл Эдвардс / Harris, Тре Смит / Vasquez, Джеймс Кидни / Doc, Топаз Хасфаль-Шу / Davis, Дональд Бурда / Lt. Greer-Мировая премьера: 10 марта 2003-Описание: Страшный вирус, порождающий неизлечимую болезнь, унёс жизни половины населения земного шара и продолжает стремительно распрастроняться. Однако в сердцах людей еще жива надежда: доктор Рейн изобрел препарат "абсолон", существенно замедляющий воздействие вируса на организм. Но неожиданно гениальный ученый, создавший спасительную вакцину, погибает при весьма загадочных обстоятельствах. Детектив Норман Скотт приступает к расследованию убийства. Вскоре он понимает, что является всего лишь пешкой в чьей-то большой игре...-Огромная благодарность:
Jazik208 - HDTVRip 720p
Fikaloid - личная оцифровка звука со своей лицензионной видеокассеты от видеокомпании "Союз Видео".
JUSTKANT - синхронизация переводов.-ДАННЫЙ ПЕРЕВОД НА ТРЕКЕРЕ ПОЯВЛЯЕТСЯ ВПЕРВЫЕ.
Текст читают Александр Быков и Ирина Маликова.-
Рейтинг

MPAA: R - Лицам до 17 лет обязательно присутствие взрослого.-Качество видео: HDTVRip
Формат видео: AVI -> //Сэмпл//
Видео: XviD, 720x400 (16:9), 23.976 fps, 1963 kbps
Аудио:
1 - 48 khz, AC3 Dolby Digital, 2/0 (L,R) ch, ~192 kbps [Союз Видео / 7ТВ] VHSRip

MediaInfo

General
Complete name : D:\Абсолон (Союз Видео).avi
Format : AVI
Format/Info : Audio Video Interleave
File size : 1.45 GiB
Duration : 1 h 36 min
Overall bit rate : 2 165 kb/s
Movie name : Абсолон / Absolon (Союз Видео/7ТВ)
Director : JUSTKANT
Writing application : VirtualDubMod 1.5.10.3 (build 2550/release)
Copyright : Качество звука: VHSRip (Fikaloid)
Video
ID : 0
Format : MPEG-4 Visual
Format profile : Advanced [email protected]
Format settings : BVOP1 / Custom Matrix
Format settings, BVOP : 1
Format settings, QPel : No
Format settings, GMC : No warppoints
Format settings, Matrix : Custom
Codec ID : XVID
Codec ID/Hint : XviD
Duration : 1 h 36 min
Bit rate : 1 963 kb/s
Width : 720 pixels
Height : 400 pixels
Display aspect ratio : 16:9
Frame rate : 23.976 (24000/1001) FPS
Original frame rate : 23.976 (23976/1000) FPS
Color space : YUV
Chroma subsampling : 4:2:0
Bit depth : 8 bits
Scan type : Progressive
Compression mode : Lossy
Bits/(Pixel*Frame) : 0.284
Stream size : 1.32 GiB (91%)
Writing library : XviD 73
Audio
ID : 1
Format : AC-3
Format/Info : Audio Coding 3
Codec ID : 2000
Duration : 1 h 36 min
Bit rate mode : Constant
Bit rate : 192 kb/s
Channel(s) : 2 channels
Channel positions : Front: L R
Sampling rate : 48.0 kHz
Frame rate : 31.250 FPS (1536 SPF)
Bit depth : 16 bits
Compression mode : Lossy
Stream size : 132 MiB (9%)
Alignment : Split accross interleaves
Interleave, duration : 42 ms (1.00 video frame)
Interleave, preload duratio : 500 ms
Title : Союз Видео/7ТВ: Александр Быков и Ирина Маликова
Service kind : Complete Main

Скриншот c названием фильма

Скриншоты

If your ratio falls below 0.3, you will not be able to download Torrents! More about the rating.

[erzsebet.pl].t750.torrent
Torrent: Registered   [ 2017-12-02 17:24 ]

Download .torrent

Download

15 KB

Status: checked
Completed: 16 times
Size: 1.45 GB
terms.php

#1

02-Dec-2017 17:24

[Profile]  [PM] 
Display posts:    

You cannot post new topics in this forum
You cannot reply to topics in this forum
You cannot edit your posts in this forum
You cannot delete your posts in this forum
You cannot vote in polls in this forum
You cannot attach files in this forum
You can download files in this forum
User agreement
For copyright holders
Advertise on this site

Скачайте на халяву через торрент на трекере erzsebet.pl

!ATTENTION!
The site does not give electronic versions of products, and is engaged only in a collecting and cataloguing of the references sent and published at a forum by our readers. If you are the legal owner of any submitted material and do not wish that the reference to it was in our catalogue, contact us and we shall immediately remove her. Files for an exchange on tracker are given by users of a site, and the administration does not bear the responsibility for their maintenance. The request to not fill in the files protected by copyrights, and also files of the illegal maintenance!