Фирма / The Firm (Сидни Поллак / Sydney Pollack) [1993, США, триллер, детектив, BDRip] Dub (Хлопушка)

DL-List and Torrent activity
Size:  1.46 GB   |    Registered:  2 years 9 months   |    Completed:  16 times
Seeders:  17   Leechers:  1   Show peers in full details
 
   
 
 

erzsebet.org ®

Longevity:
2 years 9 months
Posts:
47596

[Quote] 

Фирма / The Firm
Страна: США
Жанр: триллер, детектив
Год выпуска: 1993
Продолжительность: 02:34:34
Перевод: Профессиональный (дублированный) студия Хлопушка
Субтитры: нет
Оригинальная аудиодорожка: нет
Режиссер: Сидни Поллак / Sydney Pollack
В ролях: Том Круз, Джин Хэкмен, Джинн Трипплхорн, Хэл Холбрук, Терри Кинни, Уилфорд Бримли, Эд Харрис, Холли Хантер, Гэри Бьюзи
Описание: Том Круз играет выпускника юридического факультета университета в Гарварде. Честолюбивого и амбициозного, женатого на богатой красотке, которого приглашают работать на отличных условиях в небольшую юридическую фирму.
Молодой фирмач мечтает о высотах карьеры, однако вскоре обнаруживает, что его фирма обслуживает влиятельные мафиозные кланы Чикаго. Отказаться от сотрудничества с ними — значит подписать себе смертельный приговор. С другой стороны, за ним начинают следить сотрудники ФБР.
Доп. информация: Исходный видеоряд http://erzsebet.org/forum/viewtopic.php?t=3556196. За него спасибо derdevil13.
За звуковую дорожку спасибо Sergunka172.
Синхронизация звуковой дорожки моя т.е. Mister Smith.
Релиз с синхронизированным дубляжом от студии Хлопушка на трекере впервые.
Сэмпл: http://sendfile.su/1375230
Качество видео: BDRip
Формат видео: AVI
Видео: 720x400, 23.976 fps, MPEG-4 Visual, 1150 Kbps
Аудио: 48 KHz, AC3, 2 ch, 192 Kbps

MediaInfo

General
Complete name : G:\DVD_Fab_G\Фирма (дубляж Хлопушка).avi
Format : AVI
Format/Info : Audio Video Interleave
File size : 1.46 GiB
Duration : 2 h 34 min
Overall bit rate : 1 351 kb/s
Movie name : Фирма
Director : derdevil13
Writing application : VirtualDubModRus 1.5.10.2 (build 2542/release)
Writing library : VirtualDubMod build 2542/release
Video
ID : 0
Format : MPEG-4 Visual
Format profile : Advanced [email protected]
Format settings, BVOP : 1
Format settings, QPel : No
Format settings, GMC : No warppoints
Format settings, Matrix : Custom
Codec ID : XVID
Codec ID/Hint : XviD
Duration : 2 h 34 min
Bit rate : 1 150 kb/s
Width : 720 pixels
Height : 400 pixels
Display aspect ratio : 16:9
Frame rate : 23.976 (24000/1001) FPS
Color space : YUV
Chroma subsampling : 4:2:0
Bit depth : 8 bits
Scan type : Progressive
Compression mode : Lossy
Bits/(Pixel*Frame) : 0.166
Stream size : 1.24 GiB (85%)
Writing library : XviD 1.2.1 (UTC 2008-12-04)
Audio
ID : 1
Format : AC-3
Format/Info : Audio Coding 3
Mode extension : CM (complete main)
Format settings, Endianness : Big
Codec ID : 2000
Duration : 2 h 34 min
Bit rate mode : Constant
Bit rate : 192 kb/s
Channel(s) : 2 channels
Channel positions : Front: L R
Sampling rate : 48.0 kHz
Frame rate : 31.250 FPS (1536 spf)
Bit depth : 16 bits
Compression mode : Lossy
Stream size : 212 MiB (14%)
Alignment : Split accross interleaves
Interleave, duration : 42 ms (1.00 video frame)
Interleave, preload duration : 500 ms

Скриншоты

If your ratio falls below 0.3, you will not be able to download Torrents! More about the rating.

[erzsebet.pl].t752.torrent
Torrent: Registered   [ 2017-12-02 17:17 ]

Download .torrent

Download

15 KB

Status: checked
Completed: 16 times
Size: 1.46 GB
terms.php

#1

02-Dec-2017 17:16

[Profile]  [PM] 
Display posts:    

You cannot post new topics in this forum
You cannot reply to topics in this forum
You cannot edit your posts in this forum
You cannot delete your posts in this forum
You cannot vote in polls in this forum
You cannot attach files in this forum
You can download files in this forum
User agreement
For copyright holders
Advertise on this site

Скачайте на халяву через торрент на трекере erzsebet.pl

!ATTENTION!
The site does not give electronic versions of products, and is engaged only in a collecting and cataloguing of the references sent and published at a forum by our readers. If you are the legal owner of any submitted material and do not wish that the reference to it was in our catalogue, contact us and we shall immediately remove her. Files for an exchange on tracker are given by users of a site, and the administration does not bear the responsibility for their maintenance. The request to not fill in the files protected by copyrights, and also files of the illegal maintenance!