Люди в черном 2 / Men in Black II (Барри Зонненфельд / Barry Sonnenfeld) [2002, США, фантастика, комедия, боевик, Telecine-AVC] [Fullscreen] Dub

DL-List and Torrent activity
Size:  2.12 GB   |    Registered:  2 years 9 months   |    Completed:  16 times
Seeders:  3  
 
   
 
 

erzsebet.org ®

Longevity:
2 years 9 months
Posts:
47596

[Quote] 

Люди в черном 2 / Men in Black II [Fullscreen]- Страна: США
Жанр: фантастика, комедия, боевик
Год выпуска: 2002
Продолжительность: 01:19:41-Перевод: Профессиональный (дублированный)
Субтитры: нет-Режиссер: Барри Зонненфельд / Barry Sonnenfeld
В ролях: Томми Ли Джонс, Уилл Смит, Лара Флинн Бойл, Джонни Ноксвил, Розарио Доусон, Тони Шэлуб, Рип Торн, Патрик Варбертон, Джек Келер, Дэвид Кросс, Коломба Якобсен-Дерстин, Питер Спеллос, Майкл Ривкин, Майкл Джексон, Барри Зонненфельд...- | Релиз: -Описание: Много лет назад лучший агент организации «Люди в черном» Кей получил задание особой важности. Ему поручили надёжно спрятать таинственный космический артефакт «Светоч». Проходит 25 лет и на Землю прилетает уничтожительница миров Серлина. Приняв образ сексапильной фотомодели, она начала поиски «Светоча». Чтобы не дать ни единого шанса Серлине артефакт нужно отыскать раньше неё, но есть одна проблема — после того как агенты Кей и Джей уничтожили четыре года назад хищного инопланетного таракана, Кею стёрли память. Теперь он мирно трудится в Почтовом департаменте. У него нет даже малейшего воспоминания о своём прошлом, и Джею, для спасения мира, во чтобы то ни стало нужно найти способ восстановить его память.-Доп. информация: Личная оцифровка VHS. Финальные титры не до конца.-Семпл: http://sendfile.su/1381182-Тип релиза: Telecine-AVC
Контейнер: MKV
Видео: 678x566 (1.277) @ 724x566, 25.000 fps, AVC, ~3510 Kbps, 0.366 bits/pixel
Аудио: Русский, 48.0 KHz, AC3, 2 ch, 224 Kbps

MediaInfo

General
Unique ID : 244284450190996616973780372633533084169 (0xB7C77948253828F6B8A847908A40F209)
Complete name : MiB2.2002.Telecine.mkv
Format : Matroska
Format version : Version 4 / Version 2
File size : 2.12 GiB
Duration : 1 h 19 min
Overall bit rate : 3 810 kb/s
Encoded date : UTC 2017-11-29 17:12:44
Writing application : mkvmerge v18.0.0 ('Apricity') 64-bit
Writing library : libebml v1.3.5 + libmatroska v1.4.8
Cover : Yes
Attachments : Cover.jpg
Video
ID : 1
Format : AVC
Format/Info : Advanced Video Codec
Format profile : [email protected]
Format settings : CABAC / 16 Ref Frames
Format settings, CABAC : Yes
Format settings, RefFrames : 16 frames
Codec ID : V_MPEG4/ISO/AVC
Duration : 1 h 19 min
Bit rate : 3 581 kb/s
Width : 678 pixels
Height : 566 pixels
Display aspect ratio : 1.277
Original display aspect ratio : 1.278
Frame rate mode : Constant
Frame rate : 25.000 FPS
Color space : YUV
Chroma subsampling : 4:2:0
Bit depth : 8 bits
Scan type : Progressive
Bits/(Pixel*Frame) : 0.373
Stream size : 1.99 GiB (94%)
Writing library : x264 core 152 r2851kMod ba24899
Encoding settings : cabac=1 / ref=16 / deblock=1:-3:-2 / analyse=0x3:0x133 / me=umh / subme=11 / psy=1 / fade_compensate=0.00 / psy_rd=1.00:0.00 / mixed_ref=1 / me_range=48 / chroma_me=1 / trellis=2 / 8x8dct=1 / cqm=0 / deadzone=21,11 / fast_pskip=0 / chroma_qp_offset=-2 / threads=12 / lookahead_threads=3 / sliced_threads=0 / nr=0 / decimate=1 / interlaced=0 / bluray_compat=0 / constrained_intra=0 / bframes=14 / b_pyramid=2 / b_adapt=2 / b_bias=0 / direct=3 / weightb=1 / open_gop=0 / weightp=0 / keyint=250 / keyint_min=25 / scenecut=40 / intra_refresh=0 / rc_lookahead=70 / rc=crf / mbtree=0 / crf=17.5000 / qcomp=0.60 / qpmin=0 / qpmax=69 / qpstep=4 / vbv_maxrate=50000 / vbv_bufsize=62500 / crf_max=0.0 / nal_hrd=none / filler=0 / ip_ratio=1.40 / pb_ratio=1.30 / aq=3:0.75
Default : Yes
Forced : No
Color range : Limited
Color primaries : BT.601 PAL
Transfer characteristics : BT.470 System B, BT.470 System G
Matrix coefficients : BT.470 System B, BT.470 System G
Audio
ID : 2
Format : AC-3
Format/Info : Audio Coding 3
Format settings, Endianness : Big
Codec ID : A_AC3
Duration : 1 h 19 min
Bit rate mode : Constant
Bit rate : 224 kb/s
Channel(s) : 2 channels
Channel positions : Front: L R
Sampling rate : 48.0 kHz
Frame rate : 31.250 FPS (1536 SPF)
Bit depth : 16 bits
Compression mode : Lossy
Stream size : 128 MiB (6%)
Title : Дубляж
Language : Russian
Service kind : Complete Main
Default : Yes
Forced : No

Скриншоты

Telecine vs VHS Fullscreen vs BD Widescreen

Telecine- -VHS Fullscreen- -BD Widescreen-

Скан обложки VHS

If your ratio falls below 0.3, you will not be able to download Torrents! More about the rating.

[erzsebet.pl].t753.torrent
Torrent: Registered   [ 2017-12-02 17:24 ]

Download .torrent

Download

11 KB

Status: checked
Completed: 16 times
Size: 2.12 GB
terms.php

#1

02-Dec-2017 17:24

[Profile]  [PM] 
Display posts:    

You cannot post new topics in this forum
You cannot reply to topics in this forum
You cannot edit your posts in this forum
You cannot delete your posts in this forum
You cannot vote in polls in this forum
You cannot attach files in this forum
You can download files in this forum
User agreement
For copyright holders
Advertise on this site

Скачайте на халяву через торрент на трекере erzsebet.pl

!ATTENTION!
The site does not give electronic versions of products, and is engaged only in a collecting and cataloguing of the references sent and published at a forum by our readers. If you are the legal owner of any submitted material and do not wish that the reference to it was in our catalogue, contact us and we shall immediately remove her. Files for an exchange on tracker are given by users of a site, and the administration does not bear the responsibility for their maintenance. The request to not fill in the files protected by copyrights, and also files of the illegal maintenance!