Храбрый Портняжка / Das Tapfere Schneiderlein (Гельмут Шписс / Helmut Spieß) [1956, Германия, сказка, DVDRip-AVC] VO (allecs2010)

DL-List and Torrent activity
Size:  1.37 GB   |    Registered:  2 years 9 months   |    Completed:  16 times
Seeders:  2  
 
   
 
 

erzsebet.org ®

Longevity:
2 years 9 months
Posts:
47596

[Quote] 

Храбрый Портняжка / Das Tapfere Schneiderlein
Страна: Германия
Жанр: сказка
Год выпуска: 1956
Продолжительность: 01:20:07
-
Перевод: Одноголосый закадровый allecs2010 по субтитрам ilya_l
Субтитры: нет
-
Режиссер: Гельмут Шписс / Helmut Spieß
В ролях: Курт Шмидтхен / Kurt Schmidtchen, Критель Боденштайн / Christel Bodenstein, Хорст Дринда / Horst Drinda, Фред Кронстрём / Fred Kronström, Гизела Кретцшмар / Gisela Kretzschmar
-
Описание: По сказке братьев Гримм. Молодой и смекалистый портной, прихлопнув одним ударом семь мух на своем бутерброде, вышивает себе на поясе надпись "Одним махом семерых побивахом". Он не хочет больше быть портным и отправляется в путь-дорогу - искать приключения. И находит их сполна! Королевство, в котором он оказался, терроризируют великаны, единороги и дикие кабаны. Ему предстоит избавить королевство от всех этих напастей, а также покорить сердце любимой девушки.
-
Доп. информация: На протяжении фильма раз 5-6 проскакивает гребенка.
Видео http://erzsebet.org/forum/viewtopic.php?t=3821807
-
Сэмпл: http://sendfile.su/1371322
-
Качество видео: DVDRip-AVC
Формат видео: MKV
Видео: 704x512 (1,37:1), 25 fps, AVC (H.264) ~2250 kbps avg, 0.250 bit/pixel
Аудио: 48 kHz, Dolby AC3, 2 ch, 192 kbps

MediaInfo

General
Unique ID : 219748150166014012729245238365089806876 (0xA551F44A91D62E62B37085833DBDBA1C)
Complete name : C:\Users\ALEX\Desktop\Фильмы\Das Tapfere Schneiderlein.1956.RUS.DVDRip-AVC.x264.AC3.mkv
Format : Matroska
Format version : Version 4 / Version 2
File size : 1.37 GiB
Duration : 1 h 20 min
Overall bit rate : 2 440 kb/s
Movie name : Das Tapfere Schneiderlein
Encoded date : UTC 2017-10-22 14:45:50
Writing application : mkvmerge v8.5.2 ('Crosses') 64bit
Writing library : libebml v1.3.3 + libmatroska v1.4.4
Video
ID : 1
Format : AVC
Format/Info : Advanced Video Codec
Format profile : [email protected]
Format settings : CABAC / 8 Ref Frames
Format settings, CABAC : Yes
Format settings, RefFrames : 8 frames
Codec ID : V_MPEG4/ISO/AVC
Duration : 1 h 20 min
Bit rate : 2 250 kb/s
Width : 704 pixels
Height : 512 pixels
Display aspect ratio : 1.375
Frame rate mode : Constant
Frame rate : 25.000 FPS
Color space : YUV
Chroma subsampling : 4:2:0
Bit depth : 8 bits
Scan type : Progressive
Bits/(Pixel*Frame) : 0.250
Stream size : 1.26 GiB (92%)
Title : Das Tapfere Schneiderlein
Writing library : x264 core 116 r2074 2641b9e
Encoding settings : cabac=1 / ref=8 / deblock=1:-1:-1 / analyse=0x3:0x113 / me=umh / subme=7 / psy=1 / psy_rd=1.00:0.00 / mixed_ref=1 / me_range=16 / chroma_me=1 / trellis=2 / 8x8dct=1 / cqm=0 / deadzone=21,11 / fast_pskip=1 / chroma_qp_offset=-2 / threads=3 / sliced_threads=0 / nr=0 / decimate=1 / interlaced=0 / bluray_compat=0 / constrained_intra=0 / bframes=3 / b_pyramid=0 / b_adapt=2 / b_bias=0 / direct=3 / weightb=1 / open_gop=0 / weightp=2 / keyint=250 / keyint_min=25 / scenecut=40 / intra_refresh=0 / rc_lookahead=40 / rc=2pass / mbtree=1 / bitrate=2250 / ratetol=1.0 / qcomp=0.60 / qpmin=10 / qpmax=51 / qpstep=4 / cplxblur=20.0 / qblur=0.5 / vbv_maxrate=17500 / vbv_bufsize=14000 / nal_hrd=none / ip_ratio=1.40 / aq=1:1.00
Language : German
Default : No
Forced : No
Audio
ID : 2
Format : AC-3
Format/Info : Audio Coding 3
Format settings, Endianness : Big
Codec ID : A_AC3
Duration : 1 h 20 min
Bit rate mode : Constant
Bit rate : 192 kb/s
Channel(s) : 2 channels
Channel positions : Front: L R
Sampling rate : 48.0 kHz
Frame rate : 31.250 FPS (1536 SPF)
Bit depth : 16 bits
Compression mode : Lossy
Stream size : 110 MiB (8%)
Title : VO (allecs2010)
Language : Russian
Service kind : Complete Main
Default : No
Forced : No

Скриншоты

If your ratio falls below 0.3, you will not be able to download Torrents! More about the rating.

[erzsebet.pl].t754.torrent
Torrent: Registered   [ 2017-12-02 17:13 ]

Download .torrent

Download

14 KB

Status: checked
Completed: 16 times
Size: 1.37 GB
terms.php

#1

02-Dec-2017 17:12

[Profile]  [PM] 
Display posts:    

You cannot post new topics in this forum
You cannot reply to topics in this forum
You cannot edit your posts in this forum
You cannot delete your posts in this forum
You cannot vote in polls in this forum
You cannot attach files in this forum
You can download files in this forum
User agreement
For copyright holders
Advertise on this site

Скачайте на халяву через торрент на трекере erzsebet.pl

!ATTENTION!
The site does not give electronic versions of products, and is engaged only in a collecting and cataloguing of the references sent and published at a forum by our readers. If you are the legal owner of any submitted material and do not wish that the reference to it was in our catalogue, contact us and we shall immediately remove her. Files for an exchange on tracker are given by users of a site, and the administration does not bear the responsibility for their maintenance. The request to not fill in the files protected by copyrights, and also files of the illegal maintenance!