Боб Робертс / Bob Roberts (Тим Роббинс / Tim Robbins) [1992, США, Великобритания, политическая драма, музыкальный, DVDRip-AVC] + MVO + Sub Rus + Original Eng

DL-List and Torrent activity
Size:  1.46 GB   |    Registered:  2 years 9 months   |    Completed:  16 times
Seeders:  4  
 
   
 
 

erzsebet.org ®

Longevity:
2 years 9 months
Posts:
47596

[Quote] 

Боб Робертс / Bob Roberts
Страна: США, Великобритания
Жанр: политическая драма, музыкальный
Год выпуска: 1992
Продолжительность: 01:39:30
Перевод: Субтитры
Перевод 2: Профессиональный (многоголосый закадровый)
Субтитры: русские (Ирина Шувалова, Astartha)
Оригинальная аудиодорожка: английский
Режиссер: Тим Роббинс / Tim Robbins
В ролях: Тим Роббинс, Джанкарло Эспозито, Алан Рикман, Рей Уайз, Брайан Мюррей, Гор Видал, Ребекка Дженкинс, Гарри Дж. Ленникс, Джон Оттавино, Роберт Стэнтон
Описание: Суровая политическая жизнь вся, какая есть, представлена в фильме «Боб Робертс». Кандидат в члены Сената, желая расположить к себе электорат, старается изо всех сил, и ему удается затронуть струны души простого народа. Он прекрасно понимает, что красивые и глубокие слова, написанные про насущные проблемы общества, и приятная легко запоминающаяся мелодия никого не оставят равнодушным. Вскоре разворачивающиеся в картине события доказывают, что имидж, хорошая мелодия и трогательная песенка значат сегодня гораздо больше, чем глубокий смысл и детальный анализ.
Доп. информация: Специально для этой раздачи были сделаны русские субтитры!
Видео взято из этой раздачи, за что её создателю огромное спасибо. В этой раздаче по умолчанию включена оригинальная дорожка с русскими субтитрами.
Сэмпл: http://multi-up.com/1176319
Качество видео: DVDRip-AVC
Формат видео: MKV
Видео: AVC, 688x544, 982x544, 16:9, 25,000 fps, 1709 kbps
Аудио: AC3, 48 kHz, 192.00 kbps, 2.0 ch, (Английская)
Аудио 2: AC3, 48 kHz, 192.00 kbps, 2.0 ch, (Русская)
Формат субтитров: softsub (SRT)

MediaInfo

General
Unique ID : 177156009947799703331039511832887567189 (0x854701A5F6D73911A8E198D13A5C2355)
Complete name : C:\Users\1\Desktop\Боб Робертс\Bob.Roberts(1992).mkv
Format : Matroska
Format version : Version 4 / Version 2
File size : 1.46 GiB
Duration : 1 h 39 min
Overall bit rate : 2 095 kb/s
Encoded date : UTC 2017-11-05 16:45:03
Writing application : mkvmerge v17.0.0 ('Be Ur Friend') 64-bit
Writing library : libebml v1.3.5 + libmatroska v1.4.8
Video
ID : 1
Format : AVC
Format/Info : Advanced Video Codec
Format profile : [email protected]
Format settings, CABAC : Yes
Format settings, RefFrames : 6 frames
Codec ID : V_MPEG4/ISO/AVC
Duration : 1 h 39 min
Bit rate : 1 709 kb/s
Width : 688 pixels
Height : 544 pixels
Display aspect ratio : 16:9
Original display aspect rat : 5:4
Frame rate mode : Constant
Frame rate : 25.000 FPS
Color space : YUV
Chroma subsampling : 4:2:0
Bit depth : 8 bits
Scan type : Progressive
Bits/(Pixel*Frame) : 0.183
Stream size : 1.19 GiB (82%)
Writing library : x264 core 79
Encoding settings : cabac=1 / ref=6 / deblock=1:-2:-1 / analyse=0x3:0x113 / me=umh / subme=9 / psy=1 / psy_rd=1.0:0.0 / mixed_ref=0 / me_range=24 / chroma_me=1 / trellis=2 / 8x8dct=1 / cqm=0 / deadzone=21,11 / chroma_qp_offset=-2 / threads=1 / nr=0 / decimate=1 / mbaff=0 / constrained_intra=0 / bframes=6 / b_pyramid=0 / b_adapt=2 / b_bias=0 / direct=1 / wpredb=1 / wpredp=2 / keyint=250 / keyint_min=25 / scenecut=40 / rc_lookahead=40 / rc=2pass / mbtree=1 / bitrate=1709 / ratetol=1.0 / qcomp=0.60 / qpmin=10 / qpmax=51 / qpstep=4 / cplxblur=20.0 / qblur=0.5 / ip_ratio=1.40 / aq=1:1.00
Language : Russian
Default : Yes
Forced : No
Color range : Limited
Color primaries : BT.601 NTSC
Transfer characteristics : BT.709
Matrix coefficients : BT.601
Audio #1
ID : 2
Format : AC-3
Format/Info : Audio Coding 3
Mode : Dolby Digital
Format settings, Endianness : Big
Codec ID : A_AC3
Duration : 1 h 39 min
Bit rate mode : Constant
Bit rate : 192 kb/s
Channel(s) : 2 channels
Channel positions : Front: L R
Sampling rate : 48.0 kHz
Frame rate : 31.250 FPS (1536 SPF)
Bit depth : 16 bits
Compression mode : Lossy
Stream size : 137 MiB (9%)
Title : Профессиональный (многоголосый, закадровый)
Language : Russian
Service kind : Complete Main
Default : No
Forced : No
Audio #2
ID : 3
Format : AC-3
Format/Info : Audio Coding 3
Mode : Dolby Digital
Format settings, Endianness : Big
Codec ID : A_AC3
Duration : 1 h 39 min
Bit rate mode : Constant
Bit rate : 192 kb/s
Channel(s) : 2 channels
Channel positions : Front: L R
Sampling rate : 48.0 kHz
Frame rate : 31.250 FPS (1536 SPF)
Bit depth : 16 bits
Compression mode : Lossy
Stream size : 137 MiB (9%)
Title : Оригинальный
Language : English
Service kind : Complete Main
Default : Yes
Forced : No
Text #1
ID : 4
Format : UTF-8
Codec ID : S_TEXT/UTF8
Codec ID/Info : UTF-8 Plain Text
Duration : 1 h 38 min
Bit rate : 98 b/s
Count of elements : 1450
Stream size : 70.9 KiB (0%)
Title : Оригинальные
Language : English
Default : No
Forced : No
Text #2
ID : 5
Format : UTF-8
Codec ID : S_TEXT/UTF8
Codec ID/Info : UTF-8 Plain Text
Duration : 1 h 35 min
Bit rate : 145 b/s
Count of elements : 1562
Stream size : 102 KiB (0%)
Language : Russian
Default : Yes
Forced : No

Скриншот c названием фильма

Скриншоты

Фрагмент субтитров

5
00:00:41,230 --> 00:00:44,114
Западный квадрат проверен - объект
перемещается
6
00:00:44,315 --> 00:00:45,915
Пенсильвания, США
7
00:00:47,820 --> 00:00:51,142
БОБ РОБЕРТС
8
00:00:52,434 --> 00:00:55,360
документальные съёмки Терри Манчестера
9
00:01:10,080 --> 00:01:11,870
Одни будут работать,
10
00:01:13,794 --> 00:01:15,862
Другие - бездельничать,
11
00:01:17,234 --> 00:01:22,697
Но будут лишь жаловаться и скулить
12
00:01:25,120 --> 00:01:26,990
У одних будет всё,
13
00:01:28,920 --> 00:01:30,990
У других - ничего
14
00:01:31,365 --> 00:01:35,080
- Боб Робертс - подлинный американец
- Боб - фехтовальщик
15
00:01:35,120 --> 00:01:38,134
- Боб - работяга
- Боб полон энергии и жизни
16
00:01:38,257 --> 00:01:42,080
- Боб проницательный, человек из народа
- Сын Америки
17
00:01:42,194 --> 00:01:45,025
- Первый класс!
- Гений, он вдохновляет
18
00:01:45,140 --> 00:01:48,505
- Я люблю Боба Робертса
- Образец добродетели
19
00:01:48,617 --> 00:01:50,100
Лидер поколения
20
00:01:50,217 --> 00:01:51,951
Мы с мистером Хартом ели бифштексы,
21
00:01:52,037 --> 00:01:56,090
когда прямо посреди ресторана
вдруг начал петь молодой человек
22
00:01:56,125 --> 00:01:57,660
во весь голос
23
00:01:58,697 --> 00:02:02,910
Он не только удивительно умён,
но и умеет петь
24
00:02:03,257 --> 00:02:07,474
Когда он закончил, грянули аплодисменты,
а он встал и вышел
25
00:02:08,080 --> 00:02:11,350
Я посмотрел на мистера Харта и сказал:
"Что это?"
26
00:02:11,520 --> 00:02:13,954
Он ответил в своей неподражаемой манере:
27
00:02:14,320 --> 00:02:16,334
"Золотое дно, друг мой"
28
00:02:16,660 --> 00:02:18,917
- А потом?
- А потом всё и случилось

If your ratio falls below 0.3, you will not be able to download Torrents! More about the rating.

[erzsebet.pl].t755.torrent
Torrent: Registered   [ 2017-12-02 17:17 ]

Download .torrent

Download

30 KB

Status: checked
Completed: 16 times
Size: 1.46 GB
terms.php

#1

02-Dec-2017 17:16

[Profile]  [PM] 
Display posts:    

You cannot post new topics in this forum
You cannot reply to topics in this forum
You cannot edit your posts in this forum
You cannot delete your posts in this forum
You cannot vote in polls in this forum
You cannot attach files in this forum
You can download files in this forum
User agreement
For copyright holders
Advertise on this site

Скачайте на халяву через торрент на трекере erzsebet.pl

!ATTENTION!
The site does not give electronic versions of products, and is engaged only in a collecting and cataloguing of the references sent and published at a forum by our readers. If you are the legal owner of any submitted material and do not wish that the reference to it was in our catalogue, contact us and we shall immediately remove her. Files for an exchange on tracker are given by users of a site, and the administration does not bear the responsibility for their maintenance. The request to not fill in the files protected by copyrights, and also files of the illegal maintenance!