Предоставьте это Биверу / Проделки Бивера / Leave It to Beaver (Энди Кэдифф / Andy Cadiff) [1997, США, комедия, семейный, VHSRip] [Promo Copy / Fullscreen] VO

DL-List and Torrent activity
Size:  1.45 GB   |    Registered:  2 years 9 months   |    Completed:  16 times
Seeders:  3  
 
   
 
 

erzsebet.org ®

Longevity:
2 years 9 months
Posts:
47596

[Quote] 

Предоставьте это Биверу / Проделки Бивера / Leave It to Beaver [Promo Copy / Fullscreen]- Страна: США
Жанр: комедия, семейный
Год выпуска: 1997
Продолжительность: 01:26:24-Перевод: Одноголосый закадровый - неизвестный с VHS
Субтитры: нет-Режиссер: Энди Кэдифф / Andy Cadiff
В ролях: Кристофер МакДональд, Джанин Тернер, Камерон Финли, Эрик фон Деттен, Адам Золотин, Алан Рачинс, Грейс Филлипс, Джеффри Пирсон, Барбара Биллингсли, Кен Осмонд- | Релиз: -Описание: Вам нравится "Трудный ребёнок"? Тогда "Предоставьте это Биверу" - ваш фильм! Всё начинается с заурядной кражи велосипеда, но план его возвращения, придуманный Бивером, а главное - претворение в жизнь - это что-то!-Доп. информация: Личная оцифровка VHS.
[box=red,yellow]Ахтунг, ахтунг! Качество полный аллес капут![/box]-Семпл: http://sendfile.su/1374774-Тип релиза: VHSRip
Контейнер: AVI
Видео: 640x480 (1.33:1), 23.976 fps, XviD build 67 ~2177 kbps avg, 0.29 bit/pixel
Аудио: Русский, 48.0 KHz, AC3, 2 ch, 224 Kbps

MediaInfo

General
Complete name : Leave It to Beaver 1997 [Fullscreen] Promo VHS.avi
Format : AVI
Format/Info : Audio Video Interleave
File size : 1.45 GiB
Duration : 1 h 26 min
Overall bit rate : 2 411 kb/s
Writing application : VirtualDubMod 1.5.10.2 (build 2542/release)
Writing library : VirtualDubMod build 2542/release
Video
ID : 0
Format : MPEG-4 Visual
Format profile : Advanced [email protected]
Format settings : BVOP1 / Custom Matrix
Format settings, BVOP : 1
Format settings, QPel : No
Format settings, GMC : No warppoints
Format settings, Matrix : Custom
Codec ID : XVID
Codec ID/Hint : XviD
Duration : 1 h 26 min
Bit rate : 2 177 kb/s
Width : 640 pixels
Height : 480 pixels
Display aspect ratio : 4:3
Frame rate : 23.976 (24000/1001) FPS
Color space : YUV
Chroma subsampling : 4:2:0
Bit depth : 8 bits
Scan type : Progressive
Compression mode : Lossy
Bits/(Pixel*Frame) : 0.296
Stream size : 1.31 GiB (90%)
Writing library : XviD 67
Audio
ID : 1
Format : AC-3
Format/Info : Audio Coding 3
Format settings, Endianness : Big
Codec ID : 2000
Duration : 1 h 26 min
Bit rate mode : Constant
Bit rate : 224 kb/s
Channel(s) : 2 channels
Channel positions : Front: L R
Sampling rate : 48.0 kHz
Frame rate : 31.250 FPS (1536 SPF)
Bit depth : 16 bits
Compression mode : Lossy
Stream size : 138 MiB (9%)
Alignment : Split accross interleaves
Interleave, duration : 42 ms (1.00 video frame)
Interleave, preload duration : 500 ms
Service kind : Complete Main

Скриншоты

Fullscreen VS Widescreen

Fullscreen | Promo VHS
-Widescreen | HDTV

Скан обложки VHS

If your ratio falls below 0.3, you will not be able to download Torrents! More about the rating.

[erzsebet.pl].t757.torrent
Torrent: Registered   [ 2017-12-02 17:17 ]

Download .torrent

Download

15 KB

Status: checked
Completed: 16 times
Size: 1.45 GB
terms.php

#1

02-Dec-2017 17:16

[Profile]  [PM] 
Display posts:    

You cannot post new topics in this forum
You cannot reply to topics in this forum
You cannot edit your posts in this forum
You cannot delete your posts in this forum
You cannot vote in polls in this forum
You cannot attach files in this forum
You can download files in this forum
User agreement
For copyright holders
Advertise on this site

Скачайте на халяву через торрент на трекере erzsebet.pl

!ATTENTION!
The site does not give electronic versions of products, and is engaged only in a collecting and cataloguing of the references sent and published at a forum by our readers. If you are the legal owner of any submitted material and do not wish that the reference to it was in our catalogue, contact us and we shall immediately remove her. Files for an exchange on tracker are given by users of a site, and the administration does not bear the responsibility for their maintenance. The request to not fill in the files protected by copyrights, and also files of the illegal maintenance!