Разворот / Eden's Curve (Энн Мисава / Anne Misawa) [2003, США, драма, мелодрама, гей-тема, DVDRip] AVO (Кузнецов)

DL-List and Torrent activity
Size:  718 MB   |    Registered:  2 years 9 months   |    Completed:  16 times
Seeders:  2   Leechers:  1   Show peers in full details
 
   
 
 

erzsebet.org ®

Longevity:
2 years 9 months
Posts:
47596

[Quote] 

РазворотEden's Curve Страна: США
Жанр: драма, мелодрама, гей-тема
Год выпуска: 2003
Продолжительность: 01:30:36-Перевод: Авторский (одноголосый закадровый) Сергей Кузнецов
Субтитры: нет-Режиссер: Энн Мисава / Anne Misawa
В ролях: Трэвор Лиссауер, Хулио Перильян, Сэмюэл А. Ливайн, Мэтью Уолкер, Эмбер Тейлор, Стефен Дэниелс, Андреа Вон, Брайан Кэрролл-Описание:
1972 год. Парень по имени Питер едет в университет Вирджинии, не зная, что его там ожидает. Он поселяется в дружелюбной семье, где он встречает Уильяма, парня чуть старше себя, который влюбляется в него. Между ними начинают развиваться романтические отношения, но Питер также флиртует со своим соседом по комнате Джо и с его девушкой Бесс.-Сэмпл-Качество видео: DVDRip
Формат видео: AVI
Видео: 640x352 (1.82:1), 29.970 fps, DivX Codec 5.1.1 ~904 kbps avg, 0.13 bit/pixel
Аудио: 48 kHz, AC3 Dolby Digital, 2/0 (L,R) ch, ~192 kbps

MediaInfo

General
Complete name : G:\Edens.Curve.Kuznecov.avi
Format : AVI
Format/Info : Audio Video Interleave
File size : 718 MiB
Duration : 1h 30mn
Overall bit rate : 1 108 Kbps
Video
ID : 0
Format : MPEG-4 Visual
Format settings, BVOP : 1
Format settings, QPel : No
Format settings, GMC : No warppoints
Format settings, Matrix : Default (H.263)
Codec ID : DX50
Codec ID/Hint : DivX 5
Duration : 1h 30mn
Bit rate : 904 Kbps
Width : 640 pixels
Height : 352 pixels
Display aspect ratio : 16:9
Frame rate : 29.970 fps
Color space : YUV
Chroma subsampling : 4:2:0
Bit depth : 8 bits
Scan type : Progressive
Compression mode : Lossy
Bits/(Pixel*Frame) : 0.134
Stream size : 586 MiB (82%)
Writing library : DivX 5.1.1 (Maupiti) (UTC 2003-11-19)
Audio
ID : 1
Format : AC-3
Format/Info : Audio Coding 3
Mode extension : CM (complete main)
Format settings, Endianness : Big
Codec ID : 2000
Duration : 1h 30mn
Bit rate mode : Constant
Bit rate : 192 Kbps
Channel(s) : 2 channels
Channel positions : Front: L R
Sampling rate : 48.0 KHz
Bit depth : 16 bits
Compression mode : Lossy
Stream size : 124 MiB (17%)
Alignment : Split accross interleaves
Interleave, duration : 33 ms (1.00 video frame)
Interleave, preload duration : 500 ms

Скриншот c названием фильма

Скриншоты

If your ratio falls below 0.3, you will not be able to download Torrents! More about the rating.

[erzsebet.pl].t758.torrent
Torrent: Registered   [ 2017-12-02 17:24 ]

Download .torrent

Download

14 KB

Status: checked
Completed: 16 times
Size: 718 MB
terms.php

#1

02-Dec-2017 17:24

[Profile]  [PM] 
Display posts:    

You cannot post new topics in this forum
You cannot reply to topics in this forum
You cannot edit your posts in this forum
You cannot delete your posts in this forum
You cannot vote in polls in this forum
You cannot attach files in this forum
You can download files in this forum
User agreement
For copyright holders
Advertise on this site

Скачайте на халяву через торрент на трекере erzsebet.pl

!ATTENTION!
The site does not give electronic versions of products, and is engaged only in a collecting and cataloguing of the references sent and published at a forum by our readers. If you are the legal owner of any submitted material and do not wish that the reference to it was in our catalogue, contact us and we shall immediately remove her. Files for an exchange on tracker are given by users of a site, and the administration does not bear the responsibility for their maintenance. The request to not fill in the files protected by copyrights, and also files of the illegal maintenance!