Сплошные неприятности / Чокнутая нянька / Two Much Trouble / The Crazysitter (Майкл МакДональд / Michael McDonald) [1994, США, комедия, VHSRip] AVO (Санаев)

DL-List and Torrent activity
Size:  1.45 GB   |    Registered:  2 years 9 months   |    Completed:  16 times
Seeders:  4  
 
   
 
 

erzsebet.org ®

Longevity:
2 years 9 months
Posts:
47596

[Quote] 

Сплошные неприятности / Two Much Trouble / The Crazysitter
Страна: США
Жанр: комедия
Год выпуска: 1994
Продолжительность: 01:27:47
Перевод: Авторский (одноголосый закадровый) Павла Санаева
Субтитры: нет
Оригинальная аудиодорожка: нет
Режиссер: Майкл МакДональд /Michael McDonald/
В ролях: Беверли Д’Анджело /Beverly D'Angelo/, Эд Бегли мл. /Ed Begley Jr./, Кэрол Кейн /Carol Kane/, Брэйди Блум /Brady Bluhm/, Рэйчел Дункан /Rachel Duncan/, Фил Хартмен /Phil Hartman/, Нелл Картер /Nell Carter/, Лиза Кудроу /Lisa Kudrow/, Шон Уэйлен /Sean Whalen/, Эрик Аллан Крамер /Eric Allan Kramer/, Стив Лэндесберг /Steve Landesberg/, Тим Бэгли /Tim Bagley/...
Описание из кинопоиск.ру: Сначала в семействе Ван Асделов было две маленькие проблемы — очаровательные, но жутко проказливые детки. Решив разобраться с этим вопросом при помощи няни, бедные родители заполучили и третью неприятность — у няньки оказался тот еще характер! К тому же ее только недавно выпустили из самой настоящей тюрьмы, правда, этот факт она сделала своей маленькой тайной… Как и то, что ей в голову пришла замечательная новая идея — продать деток подороже! Но не тут-то было — хитрые подопечные подготовили достойный контрудар!
Доп. информация: картинка иногда прыгает, оцифровал и подготовил karlll
Качество видео: VHSRip ~Сэмпл~
Формат видео: AVI
Видео: 640x480 (1.33:1), 25 fps, XviD build 73 ~2155 kbps avg, 0.28 bit/pixel
Аудио: 48 kHz, AC3 Dolby Digital, 2/0 (L,R) ch, ~192 kbps

MediaInfo

Формат : AVI
Формат/Информация : Audio Video Interleave
Размер файла : 1,45 Гбайт
Продолжительность : 1 ч. 27 м.
Общий поток : 2357 Кбит/сек
Название фильма : Two Much Trouble / The Crazysitter (1994)
Программа кодирования : VirtualDubMod 1.5.10.3 | www.virtualdub-fr.org || (build 2550/release)
Библиотека кодирования : VirtualDubMod build 2550/release
Правообладатель : Karl's Bayou Country
Видео
Идентификатор : 0
Формат : MPEG-4 Visual
Профиль формата : Advanced [email protected]
Параметр BVOP формата : 2
Параметр QPel формата : Нет
Параметр GMC формата : Без точки перехода
Параметр матрицы формата : Выборочная
Идентификатор кодека : XVID
Идентификатор кодека/Подсказка : XviD
Продолжительность : 1 ч. 27 м.
Битрейт : 2155 Кбит/сек
Ширина : 640 пикселей
Высота : 480 пикселей
Соотношение сторон : 4:3
Частота кадров : 25,000 кадров/сек
Цветовое пространство : YUV
Субдискретизация насыщенности : 4:2:0
Битовая глубина : 8 бит
Тип развёртки : Прогрессивная
Метод сжатия : С потерями
Бит/(Пиксели*Кадры) : 0.281
Размер потока : 1,32 Гбайт (91%)
Библиотека кодирования : XviD 73
Аудио
Идентификатор : 1
Формат : AC-3
Формат/Информация : Audio Coding 3
Расширение режима : CM (complete main)
Параметр Endianness формата : Big
Идентификатор кодека : 2000
Продолжительность : 1 ч. 27 м.
Вид битрейта : Постоянный
Битрейт : 192 Кбит/сек
Каналы : 2 канала
Расположение каналов : Front: L R
Частота : 48,0 КГц
Битовая глубина : 16 бит
Метод сжатия : С потерями
Размер потока : 121 Мбайт (8%)
Выравнивание : Разделение по промежуткам
Продолжительность промежутка : 40 мс. (1,00 видеокадр)
Время предзагрузки промежутка : 500 мс.

Скриншоты

If your ratio falls below 0.3, you will not be able to download Torrents! More about the rating.

[erzsebet.pl].t761.torrent
Torrent: Registered   [ 2017-12-02 17:17 ]

Download .torrent

Download

15 KB

Status: checked
Completed: 16 times
Size: 1.45 GB
terms.php

#1

02-Dec-2017 17:16

[Profile]  [PM] 
Display posts:    

You cannot post new topics in this forum
You cannot reply to topics in this forum
You cannot edit your posts in this forum
You cannot delete your posts in this forum
You cannot vote in polls in this forum
You cannot attach files in this forum
You can download files in this forum
User agreement
For copyright holders
Advertise on this site

Скачайте на халяву через торрент на трекере erzsebet.pl

!ATTENTION!
The site does not give electronic versions of products, and is engaged only in a collecting and cataloguing of the references sent and published at a forum by our readers. If you are the legal owner of any submitted material and do not wish that the reference to it was in our catalogue, contact us and we shall immediately remove her. Files for an exchange on tracker are given by users of a site, and the administration does not bear the responsibility for their maintenance. The request to not fill in the files protected by copyrights, and also files of the illegal maintenance!