Охотники за разумом / Mindhunters (Ренни Харлин / Renny Harlin) [2004, США, Нидерланды, Великобритания, Финляндия, триллер, детектив, WEB-DLRip] [Open Matte] Dub

DL-List and Torrent activity
Size:  1.46 GB   |    Registered:  2 years 9 months   |    Completed:  16 times
Seeders:  7   Leechers:  1   Show peers in full details
 
   
 
 

erzsebet.org ®

Longevity:
2 years 9 months
Posts:
47596

[Quote] 

Охотники за разумом / Mindhunters / Open Matte
Страна: США, Нидерланды, Великобритания, Финляндия
Жанр: триллер, детектив
Год выпуска: 2004
Продолжительность: 01:45:59
Перевод: Профессиональный (дублированный)
Субтитры: нет
Режиссер: Ренни Харлин / Renny Harlin
В ролях: Кэтрин Моррис, Джонни Ли Миллер, ЭлЭл Кул Джей, Кристиан Слэйтер, Клифтон Коллинз мл., Вэл Килмер, Эйон Бэйли, Уилл Кемп, Патрисия Веласкес, Кассандра Белл
Описание: На удаленном острове семь будущих агентов ФБР проходят решающий тест, чтобы попасть в элитный отдел «охотников за разумом» — людей, по мельчайшим уликам и любым сведениям составляющих психологические профили опаснейших преступников.
Но испытание становится слишком реальным, когда в их группе оказывается настоящий серийный убийца. Успеют ли оставшиеся в живых выявить маньяка в своих рядах, пока он не расправился с каждым поодиночке?
Доп. информация:
Рип от - MegaPeer
Сэмпл: http://multi-up.com/1177474
Качество видео: WEB-DLRip (WEB-DL 1080p)
Формат видео: AVI
Видео: 720x400 (16:9), 23.976 fps, XviD ~1519 kbps, 0.22 bit/pixel
Аудио: 48 kHz, AC3, 3/2 (L,C,R,l,r) + LFE ch, 448 kbps

MediaInfo

General
Complete name : Mindhunters.2004.Open.Matte.WEB-DLRip.MegaPeer.avi
Format : AVI
Format/Info : Audio Video Interleave
File size : 1.46 GiB
Duration : 1 h 45 min
Overall bit rate : 1 976 kb/s
Writing application : VirtualDubMod 1.5.10.3 | www.virtualdub-fr.org || (build 2550/release)
Writing library : VirtualDubMod build 2550/release
Video
ID : 0
Format : MPEG-4 Visual
Format profile : Advanced [email protected]
Format settings : BVOP1 / Custom Matrix
Format settings, BVOP : 1
Format settings, QPel : No
Format settings, GMC : No warppoints
Format settings, Matrix : Custom
Codec ID : XVID
Codec ID/Hint : XviD
Duration : 1 h 45 min
Bit rate : 1 519 kb/s
Width : 720 pixels
Height : 400 pixels
Display aspect ratio : 16:9
Frame rate : 23.976 (24000/1001) FPS
Color space : YUV
Chroma subsampling : 4:2:0
Bit depth : 8 bits
Scan type : Progressive
Compression mode : Lossy
Bits/(Pixel*Frame) : 0.220
Stream size : 1.12 GiB (77%)
Writing library : XviD 73
Audio
ID : 1
Format : AC-3
Format/Info : Audio Coding 3
Codec ID : 2000
Duration : 1 h 45 min
Bit rate mode : Constant
Bit rate : 448 kb/s
Channel(s) : 6 channels
Channel positions : Front: L C R, Side: L R, LFE
Sampling rate : 48.0 kHz
Frame rate : 31.250 FPS (1536 SPF)
Bit depth : 16 bits
Compression mode : Lossy
Stream size : 340 MiB (23%)
Alignment : Split accross interleaves
Interleave, duration : 42 ms (1.00 video frame)
Interleave, preload duratio : 500 ms
Service kind : Complete Main

Скриншот c названием фильма

Скриншоты

If your ratio falls below 0.3, you will not be able to download Torrents! More about the rating.

[erzsebet.pl].t764.torrent
Torrent: Registered   [ 2017-12-02 17:24 ]

Download .torrent

Download

30 KB

Status: checked
Completed: 16 times
Size: 1.46 GB
terms.php

#1

02-Dec-2017 17:24

[Profile]  [PM] 
Display posts:    

You cannot post new topics in this forum
You cannot reply to topics in this forum
You cannot edit your posts in this forum
You cannot delete your posts in this forum
You cannot vote in polls in this forum
You cannot attach files in this forum
You can download files in this forum
User agreement
For copyright holders
Advertise on this site

Скачайте на халяву через торрент на трекере erzsebet.pl

!ATTENTION!
The site does not give electronic versions of products, and is engaged only in a collecting and cataloguing of the references sent and published at a forum by our readers. If you are the legal owner of any submitted material and do not wish that the reference to it was in our catalogue, contact us and we shall immediately remove her. Files for an exchange on tracker are given by users of a site, and the administration does not bear the responsibility for their maintenance. The request to not fill in the files protected by copyrights, and also files of the illegal maintenance!