Неукротимый / На грани безумия / Неистовый / Отчаянный / Frantic (Роман Полански / Roman Polanski) [1988, США, Франция, Триллер, Детектив, VHSRip] [Full Screen] MVO (Варус)

DL-List and Torrent activity
Size:  1.46 GB   |    Registered:  2 years 9 months   |    Completed:  16 times
Seeders:  5  
 
   
 
 

erzsebet.org ®

Longevity:
2 years 9 months
Posts:
47596

[Quote] 

Неукротимый / На грани безумия / Неистовый / Отчаянный / Frantic
[Full Screen]
«Опасность. Отчаяние. Страсть»
Страна: США, Франция
Жанр: Триллер, Детектив
Год выпуска: 1988
Продолжительность: 01:55:37
Перевод: Профессиональный (многоголосый закадровый) Варус
Субтитры: нет
Режиссер: Роман Полански / Roman Polanski
В ролях: Харрисон Форд, Бетти Бакли, Эмманюэль Сенье, Джон Махоуни, Джимми Рэй Уикс, Йорго Войагис, Дэвид Хаддлстон, Жерар Клайн, Жак Чирон
Описание: Аннотация от alenavova
Хирург Ричард Уокер (Форд) и его жена Сондра (Бакли) приезжают в Париж, где Ричард должен читать лекцию на медицинской конференции. Неожиданно жена исчезает. Прямо из гостиничного номера. Посреди бела дня. И без следа. Ричард поначалу подозревает какую-нибудь любовную интрижку, но все оказывается куда сложнее: речь идет о шпионской интриге. Его обращение в официальные инстанции не приводит к результатам, и Ричарду приходится действовать самостоятельно... Мрачный и холодный (в стиле "film noir") детективный триллер, который был воспринят заокеанскими критиками как возвращение "старого доброго Полянского" после относительной неудачи "черной комедии" "ПИРАТЫ". На наш взгляд, не стоит очень восторженно относиться к "ФРАНТИКУ": у Альфреда Хичкока, на ленты которого явно ориентирована картина, да и у самого Романа Полянского есть и более
напряженные, и более остроумные фильмы. Музыка знаменитого Эннио Морриконе.
Доп. информация: Оцифровка лицензионной VHS (личный архив) и получение VHSRip alenavova
Эксклюзив для erzsebet.org. При размещении данного релиза на других сайтах ссылка на автора alenavova обязательна.
Релиз
Сэмпл: https://yadi.sk/i/fU6wRTbu3Nwd5f
Качество видео: VHSRip
Формат видео: AVI
Видео: 704x528 (1.33:1), 25 fps, XviD build 73 ~1611 kbps avg, 0.17 bit/pixel
Аудио: 48 kHz, AC3 Dolby Digital, 2/0 (L,R) ch, ~192 kbps

MediaInfo

Неукротимый - Frantic (by alenavova).avi
Format : AVI
Format/Info : Audio Video Interleave
File size : 1.46 GiB
Duration : 1 h 55 min
Overall bit rate : 1 814 kb/s
Movie name : Неукротимый - Frantic (by alenavova)
Director : by alenavova
Writing application : VirtualDubMod 1.5.10.3 | www.virtualdub-fr.org || (build 2550/release)
Copyright : Edich2
Comment : erzsebet.org
Video
ID : 0
Format : MPEG-4 Visual
Format profile : Advanced [email protected]
Format settings, BVOP : 2
Format settings, QPel : No
Format settings, GMC : No warppoints
Format settings, Matrix : Custom
Codec ID : XVID
Codec ID/Hint : XviD
Duration : 1 h 55 min
Bit rate : 1 612 kb/s
Width : 704 pixels
Height : 528 pixels
Display aspect ratio : 4:3
Frame rate : 25.000 FPS
Color space : YUV
Chroma subsampling : 4:2:0
Bit depth : 8 bits
Scan type : Progressive
Compression mode : Lossy
Bits/(Pixel*Frame) : 0.173
Stream size : 1.30 GiB (89%)
Writing library : XviD 73
Audio
ID : 1
Format : AC-3
Format/Info : Audio Coding 3
Format settings, Endianness : Big
Codec ID : 2000
Duration : 1 h 55 min
Bit rate mode : Constant
Bit rate : 192 kb/s
Channel(s) : 2 channels
Channel positions : Front: L R
Sampling rate : 48.0 kHz
Frame rate : 31.250 FPS (1536 spf)
Bit depth : 16 bits
Compression mode : Lossy
Stream size : 159 MiB (11%)
Alignment : Split accross interleaves
Interleave, duration : 40 ms (1.00 video frame)
Interleave, preload duratio : 500 ms
Service kind : Complete Main

Скриншоты


If your ratio falls below 0.3, you will not be able to download Torrents! More about the rating.

[erzsebet.pl].t768.torrent
Torrent: Registered   [ 2017-12-02 17:13 ]

Download .torrent

Download

15 KB

Status: checked
Completed: 16 times
Size: 1.46 GB
terms.php

#1

02-Dec-2017 17:12

[Profile]  [PM] 
Display posts:    

You cannot post new topics in this forum
You cannot reply to topics in this forum
You cannot edit your posts in this forum
You cannot delete your posts in this forum
You cannot vote in polls in this forum
You cannot attach files in this forum
You can download files in this forum
User agreement
For copyright holders
Advertise on this site

Скачайте на халяву через торрент на трекере erzsebet.pl

!ATTENTION!
The site does not give electronic versions of products, and is engaged only in a collecting and cataloguing of the references sent and published at a forum by our readers. If you are the legal owner of any submitted material and do not wish that the reference to it was in our catalogue, contact us and we shall immediately remove her. Files for an exchange on tracker are given by users of a site, and the administration does not bear the responsibility for their maintenance. The request to not fill in the files protected by copyrights, and also files of the illegal maintenance!