Полет голубки / Шпион внутри / The Flight of the Dove / The Spy Within / Dynamite Girl (Стив Рейлсбэк / Steve Railsback) [1994, США, боевик, DVDRip-AVC] DVO (ТВ 6) + Original Eng

DL-List and Torrent activity
Size:  1.36 GB   |    Registered:  2 years 9 months   |    Completed:  16 times
Seeders:  3  
 
   
 
 

erzsebet.org ®

Longevity:
2 years 9 months
Posts:
47596

[Quote] 

Полет голубки / Шпион внутри / The Flight of the Dove / The Spy Within / Dynamite Girl
Страна: США
Жанр: триллер, боевик
Год выпуска: 1994
Продолжительность: 01:32:12
Перевод: Профессиональный (двухголосый закадровый) ТВ 6
Субтитры: нет
Оригинальная аудиодорожка: английский
Режиссер: Стив Рейлсбэк / Steve Railsback
В ролях: Скотт Гленн, Тереза Расселл, Лейн Смит, Теренс Нокс, Кэтрин Хелмонд, Джо Пантольяно
Описание: Красивая шпионка, вытягивающая секреты с помощью секса, и специалист по взрывчатым веществам с тёмным прошлым чувствуют взаимную тягу друг к другу. Поскольку тайная агентурная сеть хочет уничтожить их обоих, им ничего не остаётся, как разработать совместный план и перехитрить преследователей.
Доп. информация:
Видеоряд с Синемагеддона.
За звуковую дорожку с переводом телеканала ТВ 6 большое спасибо shocker80.
За синхронизацию звуковой дорожки огромная благодарность ale_x2008.
Фильм впервые на трекере в двухголосом переводе!
Мужские роли озвучивал Алексей Золотницкий.
Сэмпл: https://www.sendspace.com/file/375lqv
Качество видео: DVDRip-AVC
Формат видео: MKV
Видео: 640x480, 23.976 fps, AVC, 1690 Kbps
Аудио 1: 48 KHz, AC3, 2 ch, 192 Kbps
Аудио 2: 48 KHz, AC3, 2 ch, 192 Kbps

MediaInfo

General
Unique ID : 180169637943896433455602174141416915495 (0x878B68FAE881782D8B798FF65770C227)
Complete name : C:\Users\Полёт голубки (ТВ6).mkv
Format : Matroska
Format version : Version 2
File size : 1.36 GiB
Duration : 1h 32mn
Overall bit rate : 2 116 Kbps
Encoded date : UTC 2017-11-04 13:26:06
Writing application : mkvmerge v5.4.0 ('Piper') built on Mar 10 2012 13:34:39
Writing library : libebml v1.2.3 + libmatroska v1.3.0
Video
ID : 1
Format : AVC
Format/Info : Advanced Video Codec
Format profile : [email protected]
Format settings, CABAC : Yes
Format settings, ReFrames : 6 frames
Codec ID : V_MPEG4/ISO/AVC
Bit rate : 1 690 Kbps
Width : 640 pixels
Height : 480 pixels
Display aspect ratio : 4:3
Frame rate mode : Variable
Frame rate : 23.976 fps
Color space : YUV
Chroma subsampling : 4:2:0
Bit depth : 8 bits
Scan type : Progressive
Writing library : x264 core 130 r2273 b3065e6
Encoding settings : cabac=1 / ref=6 / deblock=1:0:0 / analyse=0x3:0x133 / me=umh / subme=9 / psy=1 / psy_rd=1.00:0.00 / mixed_ref=1 / me_range=18 / chroma_me=1 / trellis=2 / 8x8dct=1 / cqm=0 / deadzone=21,11 / fast_pskip=0 / chroma_qp_offset=-2 / threads=3 / lookahead_threads=1 / sliced_threads=0 / nr=0 / decimate=1 / interlaced=0 / bluray_compat=0 / constrained_intra=0 / bframes=6 / b_pyramid=2 / b_adapt=2 / b_bias=0 / direct=3 / weightb=1 / open_gop=0 / weightp=2 / keyint=240 / keyint_min=24 / scenecut=40 / intra_refresh=0 / rc_lookahead=50 / rc=crf / mbtree=1 / crf=17.0 / qcomp=0.60 / qpmin=0 / qpmax=69 / qpstep=4 / ip_ratio=1.40 / aq=1:1.20
Language : English
Default : Yes
Forced : No
Color primaries : BT.601 NTSC
Transfer characteristics : BT.709
Matrix coefficients : BT.601
Audio #1
ID : 2
Format : AC-3
Format/Info : Audio Coding 3
Mode extension : CM (complete main)
Format settings, Endianness : Big
Codec ID : A_AC3
Duration : 1h 32mn
Bit rate mode : Constant
Bit rate : 192 Kbps
Channel(s) : 2 channels
Channel positions : Front: L R
Sampling rate : 48.0 KHz
Bit depth : 16 bits
Compression mode : Lossy
Stream size : 127 MiB (9%)
Title : DVO ТВ6
Language : Russian
Default : Yes
Forced : No
Audio #2
ID : 3
Format : AC-3
Format/Info : Audio Coding 3
Mode extension : CM (complete main)
Format settings, Endianness : Big
Codec ID : A_AC3
Duration : 1h 32mn
Bit rate mode : Constant
Bit rate : 192 Kbps
Channel(s) : 2 channels
Channel positions : Front: L R
Sampling rate : 48.0 KHz
Bit depth : 16 bits
Compression mode : Lossy
Stream size : 127 MiB (9%)
Language : English
Default : No
Forced : No
Menu
00:00:00.000 : en:Chapter 1
00:02:49.210 : en:Chapter 2
00:05:50.308 : en:Chapter 3
00:07:58.769 : en:Chapter 4
00:10:43.542 : en:Chapter 5
00:14:39.161 : en:Chapter 6
00:17:11.930 : en:Chapter 7
00:18:43.572 : en:Chapter 8
00:24:55.443 : en:Chapter 9
00:30:27.058 : en:Chapter 10
00:33:24.852 : en:Chapter 11
00:39:08.612 : en:Chapter 12
00:42:21.105 : en:Chapter 13
00:45:29.793 : en:Chapter 14
00:50:46.810 : en:Chapter 15
00:53:44.554 : en:Chapter 16
00:59:24.260 : en:Chapter 17
01:02:37.837 : en:Chapter 18
01:09:29.198 : en:Chapter 19
01:13:54.279 : en:Chapter 20
01:19:49.301 : en:Chapter 21
01:22:41.172 : en:Chapter 22
01:25:18.630 : en:Chapter 23
01:28:38.663 : en:Chapter 24

Скриншоты

If your ratio falls below 0.3, you will not be able to download Torrents! More about the rating.

[erzsebet.pl].t769.torrent
Torrent: Registered   [ 2017-12-02 17:17 ]

Download .torrent

Download

14 KB

Status: checked
Completed: 16 times
Size: 1.36 GB
terms.php

#1

02-Dec-2017 17:16

[Profile]  [PM] 
Display posts:    

You cannot post new topics in this forum
You cannot reply to topics in this forum
You cannot edit your posts in this forum
You cannot delete your posts in this forum
You cannot vote in polls in this forum
You cannot attach files in this forum
You can download files in this forum
User agreement
For copyright holders
Advertise on this site

Скачайте на халяву через торрент на трекере erzsebet.pl

!ATTENTION!
The site does not give electronic versions of products, and is engaged only in a collecting and cataloguing of the references sent and published at a forum by our readers. If you are the legal owner of any submitted material and do not wish that the reference to it was in our catalogue, contact us and we shall immediately remove her. Files for an exchange on tracker are given by users of a site, and the administration does not bear the responsibility for their maintenance. The request to not fill in the files protected by copyrights, and also files of the illegal maintenance!