Мистер Вонг, детектив / Mr. Wong, Detective (Уильям Най / William Nigh) [1938, США, триллер, драма, криминал, детектив, приключения, DVDRip] Sub Rus + Original Eng

DL-List and Torrent activity
Size:  1002 MB   |    Registered:  2 years 9 months   |    Completed:  16 times
Seeders:  1  
 
   
 
 

erzsebet.org ®

Longevity:
2 years 9 months
Posts:
47596

[Quote] 

Мистер Вонг, детектив / Mr. Wong, Detective
Страна: США
Жанр: триллер, драма, криминал, детектив, приключения
Год выпуска: 1938
Продолжительность: 1:08:27
Перевод: Субтитры (Serveladkin)
Субтитры: русские
Оригинальная аудиодорожка: английский
Режиссер: Уильям Най / William Nigh
В ролях: Борис Карлофф, Грант Уитерс, Максин Дженнингс, Эвелин Брент, Джордж Ллойд, Люсьен Приваль, Джон Ст. Полис, Уильям Гулд, Хупер Этчли, Джон Хэмилтон, Ли Танг Фу, Линтон Брент, Грэйс Вуд
Описание: Вскоре после того, как бизнесмен из Сан-Франциско Саймон Дэйтон попросил у знаменитого детектива Джеймса Ли Вонга спасти его жизнь, Дэйтона находят мертвым в своем кабинете. Главным подозреваемым становится Карл Ромер, изобретатель, который перед этим угрожал Дэйтону пистолетом из-за кражи его химической формулы. Капитан полиции Сэм Стрит задерживает ученого, но мистер Вонг сомневается, что виноват именно Ромер.

Доп. информация:
Фильмография Бориса Карлоффа
Качество видео: DVDRip (by [email protected])
Формат видео: AVI
Видео: 640x480 (1.33:1), 23.976 fps, XviD build 64 ~1845 kbps avg, 0.25 bit/pixel
Аудио: 48 kHz, AC3 Dolby Digital, 1/0 (C) ch, ~192 kbps
Формат субтитров: softsub (SRT)

Мистер Вонг на рутрекере

Джеймс Ли Вонг (или просто мистер Вонг) - вымышленный китайско-американский детектив, герой 12 рассказов Хью Уили (1884-1968), опубликованных в журнале "Collier's" с 1934 по 1938 год, и серии фильмов. В рассказах Вонг описан как закончивший Йельский университет, "с лицом иноземного дьявола-янки", ростом шесть футов, агент Министерства финансов Соединенных Штатов, проживающий в Сан-Франциско. Мистер Вонг появился в серии из шести фильмов для Monogram Pictures с 1938 по 1940 год. В пяти фильмах в главной роли снялся Борис Карлофф, в шестом - Кей Люк.
  • Мистер Вонг, детектив / Mr. Wong, Detective (1938) - Борис Карлофф
  • Тайна мистера Вонга / The Mystery of Mr. Wong (1939) - Борис Карлофф
  • Мистер Вонг в Китайском квартале / Mr. Wong in Chinatown (1939) - Борис Карлофф
  • Роковой час / Смертельный час / The Fatal Hour / Mr. Wong at Headquarters (1940) - Борис Карлофф
  • Обреченный на смерть / Doomed to Die (1940) - Борис Карлофф
  • Призрак Китайского квартала / Phantom of Chinatown (1940) - Кей Люк
  • ОГРОМНОЕ СПАСИБО Serveladkin за перевод

    MediaInfo

    Общее
    Полное имя : ...\Mr. Wong, Detective (1938).avi
    Формат : AVI
    Формат/Информация : Audio Video Interleave
    Размер файла : 1002 Мбайт
    Продолжительность : 1 ч. 8 м.
    Общий поток : 2047 Кбит/сек
    Программа кодирования : VirtualDubMod 1.5.10.2 (build 2540/release)
    Библиотека кодирования : VirtualDubMod build 2540/release
    Видео
    Идентификатор : 0
    Формат : MPEG-4 Visual
    Профиль формата : Advanced [email protected]
    Параметр BVOP формата : 2
    Параметр QPel формата : Нет
    Параметр GMC формата : Без точки перехода
    Параметр матрицы формата : Default (MPEG)
    Идентификатор кодека : XVID
    Идентификатор кодека/Подсказка : XviD
    Продолжительность : 1 ч. 8 м.
    Битрейт : 1845 Кбит/сек
    Ширина : 640 пикселей
    Высота : 480 пикселей
    Соотношение сторон : 4:3
    Частота кадров : 23,976 (24000/1001) кадра/сек
    Цветовое пространство : YUV
    Субдискретизация насыщенности : 4:2:0
    Битовая глубина : 8 бит
    Тип развёртки : Прогрессивная
    Метод сжатия : С потерями
    Бит/(Пиксели*Кадры) : 0.250
    Размер потока : 903 Мбайт (90%)
    Библиотека кодирования : XviD 64
    Аудио
    Идентификатор : 1
    Формат : AC-3
    Формат/Информация : Audio Coding 3
    Параметр Endianness формата : Big
    Идентификатор кодека : 2000
    Продолжительность : 1 ч. 8 м.
    Вид битрейта : Постоянный
    Битрейт : 192 Кбит/сек
    Каналы : 1 канал
    Расположение каналов : Front: C
    Частота : 48,0 КГц
    Частота кадров : 31,250 кадров/сек (1536 spf)
    Битовая глубина : 16 бит
    Метод сжатия : С потерями
    Размер потока : 94,0 Мбайт (9%)
    Выравнивание : Разделение по промежуткам
    Продолжительность промежутка : 42 мс. (1,00 видеокадр)
    Время предзагрузки промежутка : 500 мс.
    ServiceKind/String : Complete Main

    Скриншоты

    Фрагмент субтитров

    63
    00:05:47,500 --> 00:05:48,620
    Не знаю, у меня...
    64
    00:05:48,720 --> 00:05:50,420
    У меня чувство,
    что за мной следят,
    65
    00:05:50,540 --> 00:05:52,020
    ...и следили даже сегодня,
    когда я ехал сюда
    66
    00:05:52,160 --> 00:05:54,160
    Но всё это настолько
    туманно, что я...
    67
    00:05:54,280 --> 00:05:56,660
    Я не могу дать вам ни одной
    зацепки, мистер Вонг.
    68
    00:05:56,800 --> 00:05:59,460
    Напротив, мистер Дэйтон,
    вы мне ее дали.
    69
    00:05:59,760 --> 00:06:02,080
    Вы говорили о поддельном письме.
    70
    00:06:02,180 --> 00:06:04,680
    - Оно у вас?
    - Да, конечно. В офисе.
    71
    00:06:04,760 --> 00:06:05,900
    Вы сделаете это?
    72
    00:06:05,980 --> 00:06:07,580
    Вы придете в мой офис,
    чтобы всех расспросить?
    73
    00:06:07,660 --> 00:06:09,140
    Я заплачу сколько попросите,
    74
    00:06:09,300 --> 00:06:11,280
    ...но мне нужна ваша помощь,
    иначе я сойду с ума!
    75
    00:06:11,720 --> 00:06:13,500
    Я приеду в десять утра,
    если вам подходит.
    76
    00:06:13,620 --> 00:06:14,880
    Отлично!
    77
    00:06:15,000 --> 00:06:17,840
    Я признателен вам, мистер Вонг,
    невероятно признателен!
    78
    00:06:17,900 --> 00:06:20,620
    А тем временем, что бы
    вы мне посоветовали сделать?
    79
    00:06:21,240 --> 00:06:23,060
    Я бы порекомендовал...
    80
    00:06:23,340 --> 00:06:26,900
    ...утку с орехами, украшенную
    засахаренными каштанами,
    81
    00:06:26,980 --> 00:06:28,640
    - ...немного рисового вина...
    - Что?
    82
    00:06:28,760 --> 00:06:30,280
    Прошу прощения...

    If your ratio falls below 0.3, you will not be able to download Torrents! More about the rating.

    [erzsebet.pl].t77.torrent
    Torrent: Registered   [ 2017-12-02 15:58 ]

    Download .torrent

    Download

    20 KB

    Status: checked
    Completed: 16 times
    Size: 1002 MB
    terms.php

    #1

    02-Dec-2017 15:57

    [Profile]  [PM] 
    Display posts:    

    You cannot post new topics in this forum
    You cannot reply to topics in this forum
    You cannot edit your posts in this forum
    You cannot delete your posts in this forum
    You cannot vote in polls in this forum
    You cannot attach files in this forum
    You can download files in this forum
    User agreement
    For copyright holders
    Advertise on this site

    Скачайте на халяву через торрент на трекере erzsebet.pl

    !ATTENTION!
    The site does not give electronic versions of products, and is engaged only in a collecting and cataloguing of the references sent and published at a forum by our readers. If you are the legal owner of any submitted material and do not wish that the reference to it was in our catalogue, contact us and we shall immediately remove her. Files for an exchange on tracker are given by users of a site, and the administration does not bear the responsibility for their maintenance. The request to not fill in the files protected by copyrights, and also files of the illegal maintenance!