Убрать перископ / Down Periscope (Дэвид С. Уорд / David S. Ward) [1996, США, комедия, VHSRip] [Full Screen] AVO (Павел Санаев)

DL-List and Torrent activity
Size:  1.37 GB   |    Registered:  2 years 9 months   |    Completed:  16 times
Seeders:  4  
 
   
 
 

erzsebet.org ®

Longevity:
2 years 9 months
Posts:
47596

[Quote] 

Убрать перископ / Down Periscope
[Full Screen]
«A rusty sub. A rebel commander. A renegade crew. When destiny called, they should have hung up»
Страна: США
Жанр: комедия
Год выпуска: 1996
Продолжительность: 01:29:44
Перевод: Авторский (одноголосый закадровый) Павел Санаев
Субтитры: нет
Режиссер: Дэвид С. Уорд / David S. Ward
В ролях: Келси Грэммер (Kelsey Grammer), Лорен Холли (Lauren Holly), Роб Шнайдер (Rob Schneider), Хэрри Дин Стэнтон (Harry Dean Stanton), Брюс Дерн (Bruce Dern), Уильям Х. Мэйси (William H. Macy), Кен Хадсон Кэмпбелл (Ken Hudson Campbell), Тоби Хасс (Toby Huss), Дуэйн Мартин (Duane Martin), Джонатан Пеннер (Jonathan Penner), Рип Торн (Rip Torn), Брэдфорд Тэйтум (Bradford Tatum), Харлэнд Уильямс (Harland Williams)
Описание: Аннотация от alenavova
Капитан-подводник Томас Додж, известный своим непредсказуемым нравом и вызывающими выходками, наконец-то получает в свое распоряжение настоящую подводную лодку - проржавевшую дизельную развалюху, которая, по словам одного из персонажей, "не развалилась только потому, что ее птицы загадили". Задание ему поручено своеобразное: надо под видом возможного диверсанта проплыть по военным базам и проверить их боеготовность. Но это только цветочки: кроме дурацкой подводной лодки Доджу досталась еще и самая дурацкая команда, которую только можно себе представить. Капитану не остается ничего иного, кроме как опустить перископ и отправиться в путь: ведь если он не выполнит задание, то никогда не получит настоящую, атомную подводную лодку... Полная очень смешных ситуаций и реплик, картина едко пародирует серию "подводных" боевиков вроде "Охоты за "Красным Октябрем" и "Багрового прилива".
Доп. информация: Оцифровка VHS (личный архив) и получение VHSRip alenavova
Эксклюзив для erzsebet.org. При размещении данного релиза на других сайтах ссылка на автора alenavova обязательна.
Релиз
Сэмпл: https://yadi.sk/i/PKTsGlV03PQ3kG
Качество видео: VHSRip
Формат видео: AVI
Видео: 704x528 (1.33:1), 25 fps, XviD build 73 ~1977 kbps avg, 0.21 bit/pixel
Аудио: 48 kHz, AC3 Dolby Digital, 2/0 (L,R) ch, ~192 kbps

MediaInfo

Убрать перископ - Down Periscope [by alenavova].avi
Format : AVI
Format/Info : Audio Video Interleave
File size : 1.37 GiB
Duration : 1 h 29 min
Overall bit rate : 2 180 kb/s
Movie name : Убрать перископ - Down Periscope [by alenavova]
Director : by alenavova
Writing application : VirtualDubMod 1.5.10.3 | www.virtualdub-fr.org || (build 2550/release)
Copyright : Edich2
Comment : erzsebet.org
Video
ID : 0
Format : MPEG-4 Visual
Format profile : Advanced [email protected]
Format settings, BVOP : 2
Format settings, QPel : No
Format settings, GMC : No warppoints
Format settings, Matrix : Custom
Codec ID : XVID
Codec ID/Hint : XviD
Duration : 1 h 29 min
Bit rate : 1 978 kb/s
Width : 704 pixels
Height : 528 pixels
Display aspect ratio : 4:3
Frame rate : 25.000 FPS
Color space : YUV
Chroma subsampling : 4:2:0
Bit depth : 8 bits
Scan type : Progressive
Compression mode : Lossy
Bits/(Pixel*Frame) : 0.213
Stream size : 1.24 GiB (91%)
Writing library : XviD 73
Audio
ID : 1
Format : AC-3
Format/Info : Audio Coding 3
Format settings, Endianness : Big
Codec ID : 2000
Duration : 1 h 29 min
Bit rate mode : Constant
Bit rate : 192 kb/s
Channel(s) : 2 channels
Channel positions : Front: L R
Sampling rate : 48.0 kHz
Frame rate : 31.250 FPS (1536 spf)
Bit depth : 16 bits
Compression mode : Lossy
Stream size : 123 MiB (9%)
Alignment : Split accross interleaves
Interleave, duration : 40 ms (1.00 video frame)
Interleave, preload duratio : 500 ms
Service kind : Complete Main

Скриншоты


If your ratio falls below 0.3, you will not be able to download Torrents! More about the rating.

[erzsebet.pl].t782.torrent
Torrent: Registered   [ 2017-12-02 17:17 ]

Download .torrent

Download

14 KB

Status: checked
Completed: 16 times
Size: 1.37 GB
terms.php

#1

02-Dec-2017 17:16

[Profile]  [PM] 
Display posts:    

You cannot post new topics in this forum
You cannot reply to topics in this forum
You cannot edit your posts in this forum
You cannot delete your posts in this forum
You cannot vote in polls in this forum
You cannot attach files in this forum
You can download files in this forum
User agreement
For copyright holders
Advertise on this site

Скачайте на халяву через торрент на трекере erzsebet.pl

!ATTENTION!
The site does not give electronic versions of products, and is engaged only in a collecting and cataloguing of the references sent and published at a forum by our readers. If you are the legal owner of any submitted material and do not wish that the reference to it was in our catalogue, contact us and we shall immediately remove her. Files for an exchange on tracker are given by users of a site, and the administration does not bear the responsibility for their maintenance. The request to not fill in the files protected by copyrights, and also files of the illegal maintenance!