Белые цыпочки / White Chicks (Кинен Айвори Уайанс / Keenen Ivory Wayans) [2004, США, комедия, криминал, WEB-DLRip] MVO + DVO

DL-List and Torrent activity
Size:  2.06 GB   |    Registered:  2 years 9 months   |    Completed:  16 times
Seeders:  3  
 
   
 
 

erzsebet.org ®

Longevity:
2 years 9 months
Posts:
47596

[Quote] 

Белые цыпочки / White Chicks
Страна: США
Жанр: комедия, криминал
Год выпуска: 2004
Продолжительность: 01:48:44
Перевод: Профессиональный (многоголосый закадровый)
Перевод 2: Профессиональный (двухголосый закадровый)
Субтитры: нет
Режиссер: Кинен Айвори Уайанс / Keenen Ivory Wayans
В ролях: Шон Уайанс, Марлон Уайанс, Джейми Кинг, Фрэнки Фэйзон, Локлин Манро, Джон Хёрд, Бизи Филиппс, Терри Крюс, Бриттани Дэниэл
Описание: Два брата работают в ФБР, но трудно сказать, что дела их идут самым лучшим образом. В очередной раз попав в неприятности, ребята решают доказать, что способны на многое. Они сами выбирают себе задание – защищать сестер Уилтон, отец которых – владелец самых крупных гостиниц в стране. Сестры вынуждены осуществить переезд с вокзала в отель Хэмптонс, и задача спецагентов-неудачников – обеспечить безопасность этого переезда. И тут героям фильма «Белые цыпочки» приходит смелая и глупая мысль: а что, если надежно спрятать сестер Уилтон, а самим переодеться и занять их место? И плевать на телосложение, плевать на цвет кожи (ведь братья на самом деле – афро-американцы), плевать на все. Главное – убедить окружающих, что они – глупенькие дочери богатого бизнесмена. И самое сложное – заставить поверить в эту басню других агентов ФБР, которые были направлены на эту миссию начальством. Смогут ли братья обхитрить всех и выйти сухими из воды? Или же они попадут в очередную переделку, которая станет причиной окончания их карьеры в ФБР..?
Доп. информация: Выражаю огромную благодарность Нордеру за синхронизацию звуковых дорожек. За дороги благодарим ilgiz01.
Сэмпл: https://yadi.sk/i/jS31GU2t3Pq3dG
Качество видео: WEB-DLRip (Исходник WEB-DL 1080p / Rutor)
Формат видео: AVI
Видео: XviD 73, 720x400, (16:9), 23,976 fps, 2114 Кбит/с, 8 бит, 0.30 bit/pixel
Аудио: Русский (АС3, 6 ch (Front: L C R, Side: L R, LFE), 48,0 KHz, 384 Kbps) MVO
Аудио 2: Русский (АС3, 2 ch (Front: L R), 48,0 KHz, 192 Kbps) DVO

MediaInfo

Общее
Полное имя : H:\Фильмы на трекер\Белые цыпочки (комедия, криминал 2004 год).avi
Формат : AVI
Формат/Информация : Audio Video Interleave
Профиль формата : OpenDML
Размер файла : 2,06 Гбайт
Продолжительность : 1 ч. 48 м.
Общий поток : 2708 Кбит/сек
Программа кодирования : VirtualDubMod 1.5.10.2 (build 2540/release)
Библиотека кодирования : VirtualDubMod build 2540/release
Видео
Идентификатор : 0
Формат : MPEG-4 Visual
Профиль формата : Advanced [email protected]
Параметр BVOP формата : 2
Параметр QPel формата : Нет
Параметр GMC формата : Без точки перехода
Параметр матрицы формата : Выборочная
Идентификатор кодека : XVID
Идентификатор кодека/Подсказка : XviD
Продолжительность : 1 ч. 48 м.
Битрейт : 2114 Кбит/сек
Ширина : 720 пикселей
Высота : 400 пикселей
Соотношение сторон : 16:9
Частота кадров : 23,976 (23976/1000) кадра/сек
Цветовое пространство : YUV
Субдискретизация насыщенности : 4:2:0
Битовая глубина : 8 бит
Тип развёртки : Прогрессивная
Метод сжатия : С потерями
Бит/(Пиксели*Кадры) : 0.306
Размер потока : 1,61 Гбайт (78%)
Библиотека кодирования : XviD 73
Аудио #1
Идентификатор : 1
Формат : AC-3
Формат/Информация : Audio Coding 3
Расширение режима : CM (complete main)
Параметр Endianness формата : Big
Идентификатор кодека : 2000
Продолжительность : 1 ч. 48 м.
Вид битрейта : Постоянный
Битрейт : 384 Кбит/сек
Каналы : 6 каналов
Расположение каналов : Front: L C R, Side: L R, LFE
Частота : 48,0 КГц
Частота кадров : 31,250 кадров/сек (1536 spf)
Метод сжатия : С потерями
Размер потока : 299 Мбайт (14%)
Выравнивание : Разделение по промежуткам
Продолжительность промежутка : 42 мс. (1,00 видеокадр)
Время предзагрузки промежутка : 500 мс.
Аудио #2
Идентификатор : 2
Формат : AC-3
Формат/Информация : Audio Coding 3
Расширение режима : CM (complete main)
Параметр Endianness формата : Big
Идентификатор кодека : 2000
Продолжительность : 1 ч. 48 м.
Вид битрейта : Постоянный
Битрейт : 192 Кбит/сек
Каналы : 2 канала
Расположение каналов : Front: L R
Частота : 48,0 КГц
Частота кадров : 31,250 кадров/сек (1536 spf)
Метод сжатия : С потерями
Размер потока : 149 Мбайт (7%)
Выравнивание : Разделение по промежуткам
Продолжительность промежутка : 42 мс. (1,00 видеокадр)
Время предзагрузки промежутка : 500 мс.

Скриншот c названием фильма

Скриншоты

If your ratio falls below 0.3, you will not be able to download Torrents! More about the rating.

[erzsebet.pl].t790.torrent
Torrent: Registered   [ 2017-12-02 17:24 ]

Download .torrent

Download

11 KB

Status: checked
Completed: 16 times
Size: 2.06 GB
terms.php

#1

02-Dec-2017 17:24

[Profile]  [PM] 
Display posts:    

You cannot post new topics in this forum
You cannot reply to topics in this forum
You cannot edit your posts in this forum
You cannot delete your posts in this forum
You cannot vote in polls in this forum
You cannot attach files in this forum
You can download files in this forum
User agreement
For copyright holders
Advertise on this site

Скачайте на халяву через торрент на трекере erzsebet.pl

!ATTENTION!
The site does not give electronic versions of products, and is engaged only in a collecting and cataloguing of the references sent and published at a forum by our readers. If you are the legal owner of any submitted material and do not wish that the reference to it was in our catalogue, contact us and we shall immediately remove her. Files for an exchange on tracker are given by users of a site, and the administration does not bear the responsibility for their maintenance. The request to not fill in the files protected by copyrights, and also files of the illegal maintenance!