Плохие парни 2 / Bad Boys II (Майкл Бэй / Michael Bay) [2003, США, боевик, комедия, криминал, WEB-DLRip] AVO (Андрей Гаврилов) + AVO (Юрий Живов)

Reply to topic
 
Author Message

erzsebet.org ®

Longevity: 3 years 1 month

Posts: 47596

Post 02-Dec-2017 17:24

[Quote]

Плохие парни 2 / Bad Boys II
Страна: США
Жанр: боевик, комедия, криминал
Год выпуска: 2003
Продолжительность: 02:26:23
Перевод: Авторский (одноголосый закадровый) Андрей Гаврилов
Перевод 2: Авторский (одноголосый закадровый) Юрий Живов
Субтитры: нет
Режиссер: Майкл Бэй / Michael Bay
В ролях: Уилл Смит, Мартин Лоуренс, Гэбриэл Юнион, Хорди Молья, Петер Стормаре, Тереза Рэндл, Джо Пантольяно, Майкл Шеннон, Джон Седа
Описание: Майк Лоури и Маркус Бэрнетт по-прежнему служат в полиции и всё также часто попадают в передряги. Их методы не по нраву многим коллегам и начальству, ведь после каждого расследования остаётся куча разбитых машин, разрушенных построек и прочего нанесённого ущерба. Отдел по борьбе с незаконным оборотом наркотиков готовится к крупному делу: новый вид наркотика должен вскоре прибыть из Майами. Детективам удаётся через свою сеть и добытые улики узнать о готовящемся перевороте в стане торговцев белым порошком: один из них планирует подмять весь рынок. К несчастью об этом плане узнают и другие воротилы нелегального бизнеса. Майк и Маркус оказываются в центре разборок картелей и передела сфер влияния. Решать первостепенные задачи на службе напарникам мешает тот факт, что бабник Майк положил глаз на сестру Маркуса. Последнего не устраивает такое положение дел, из-за чего детективы постоянно выясняют отношения. А это приводит к неожиданным поворотам в итак не до конца ясной истории…
Сэмпл: http://multi-up.com/1176875
Качество видео: WEB-DLRip (Исходник WEB-DL 1080p)
Формат видео: AVI
Видео: XviD 73, 720x400, (16:9), 23,976 fps, 1345 Кбит/с, 8 бит
Аудио: Русский (АС3, 6 ch (Front: L C R, Side: L R, LFE), 48,0 KHz, 384 Kbps) Андрей Гаврилов
Аудио 2: Русский (АС3, 6 ch (Front: L C R, Side: L R, LFE), 48,0 KHz, 384 Kbps) Юрий Живов

MediaInfo

Общее
Полное имя : H:\Фильмы на трекер\Плохие парни - 2 (боевик, комедия, криминал 2003 год).avi
Формат : AVI
Формат/Информация : Audio Video Interleave
Профиль формата : OpenDML
Размер файла : 2,18 Гбайт
Продолжительность : 2 ч. 26 м.
Общий поток : 2130 Кбит/сек
Программа кодирования : VirtualDubMod 1.5.10.2 (build 2540/release)
Библиотека кодирования : VirtualDubMod build 2540/release
Видео
Идентификатор : 0
Формат : MPEG-4 Visual
Профиль формата : Advanced [email protected]
Параметр BVOP формата : 2
Параметр QPel формата : Нет
Параметр GMC формата : Без точки перехода
Параметр матрицы формата : Выборочная
Идентификатор кодека : XVID
Идентификатор кодека/Подсказка : XviD
Продолжительность : 2 ч. 26 м.
Битрейт : 1345 Кбит/сек
Ширина : 720 пикселей
Высота : 400 пикселей
Соотношение сторон : 16:9
Частота кадров : 23,976 (23976/1000) кадра/сек
Цветовое пространство : YUV
Субдискретизация насыщенности : 4:2:0
Битовая глубина : 8 бит
Тип развёртки : Прогрессивная
Метод сжатия : С потерями
Бит/(Пиксели*Кадры) : 0.195
Размер потока : 1,37 Гбайт (63%)
Библиотека кодирования : XviD 73
Аудио #1
Идентификатор : 1
Формат : AC-3
Формат/Информация : Audio Coding 3
Расширение режима : CM (complete main)
Параметр Endianness формата : Big
Идентификатор кодека : 2000
Продолжительность : 2 ч. 26 м.
Вид битрейта : Постоянный
Битрейт : 384 Кбит/сек
Каналы : 6 каналов
Расположение каналов : Front: L C R, Side: L R, LFE
Частота : 48,0 КГц
Частота кадров : 31,250 кадров/сек (1536 spf)
Метод сжатия : С потерями
Задержка видео : 23 мс.
Размер потока : 402 Мбайт (18%)
Выравнивание : Разделение по промежуткам
Продолжительность промежутка : 42 мс. (1,00 видеокадр)
Время предзагрузки промежутка : 500 мс.
Аудио #2
Идентификатор : 2
Формат : AC-3
Формат/Информация : Audio Coding 3
Расширение режима : CM (complete main)
Параметр Endianness формата : Big
Идентификатор кодека : 2000
Продолжительность : 2 ч. 26 м.
Вид битрейта : Постоянный
Битрейт : 384 Кбит/сек
Каналы : 6 каналов
Расположение каналов : Front: L C R, Side: L R, LFE
Частота : 48,0 КГц
Частота кадров : 31,250 кадров/сек (1536 spf)
Метод сжатия : С потерями
Задержка видео : 23 мс.
Размер потока : 402 Мбайт (18%)
Выравнивание : Разделение по промежуткам
Продолжительность промежутка : 42 мс. (1,00 видеокадр)
Время предзагрузки промежутка : 500 мс.

Скриншот c названием фильма

Скриншоты

[erzsebet.pl].t794.torrent
Torrent: Not registered

Download .torrent

Download

11 KB

Added: 2017-12-02 17:24
Downloaded: 16 times  [ Show DL-List ]
   
[Profile] [PM]
Display posts:    
Reply to topic

Current time is: 28-Jan 06:08

All times are UTC ± 0



You cannot post new topics in this forum
You cannot reply to topics in this forum
You cannot edit your posts in this forum
You cannot delete your posts in this forum
You cannot vote in polls in this forum
You cannot attach files in this forum
You can download files in this forum