Два билета в Индию (Роман Качанов) [1985, СССР, мультфильм, короткометражка, WEBRip 1080p]

DL-List and Torrent activity
Size:  760 MB   |    Registered:  4 months 28 days   |    Completed:  142 times
Seeders:  1  
 
   
 
 

erzsebet.org ®

Longevity:
2 years 8 months
Posts:
47596

[Quote] 

Два билета в Индию Год выпуска: 1985
Страна: СССР
Киностудия:
Жанр: мультфильм, короткометражка
Продолжительность: 00:19:46
Перевод: не требуется
субтитры: отсутствуют-Режиссёр: Роман Качанов
Роли озвучивали: Александр Кайдановский, Мария Виноградова, Нина Зорская, Ольга Громова, Юрий Андреев, Рогволд Суховерко, Владимир Ферапонтов, Юрий Волынцев, Виктор Филиппов-Описание: Учёные с планеты Геда летят в Индию на симпозиум по охране животных Галактики. Из-за мухи в экране космического корабля перед последним витком вокруг Земли происходит экстренное катапультирование профессора Транкверри. Он оказывается в пионерском лагере под Москвой и принимает облик тигра. В Индию ему одному не добраться, так как он отличается от обычного тигра только лишь тем, что умеет говорить. В этом пионерском лагере как раз находятся два пионера — Юля Грибкова и Дима Семёнов, которые решают помочь профессору. Но как переправить его в таком виде в Индию? За помощью они обращаются к Юлиной бабушке Вере Грибковой, которая, в свою очередь, звонит и зовёт на помощь своего друга детства Николая Яснова — ныне укротителя диких животных в цирке. Цирк как раз должен уехать на гастроли в Индию, и поэтому укротитель соглашается взять Транкверри с собой…-Качество: WEBRip 1080p
Формат: MP4
Видео кодек: AVC
Аудио кодек: AAC
Видео: 1920x1080, 24 fps, ~5120 kbps, 0.103 bit/pixel
Аудио: 48kHz, AAC, 2ch, 256 kbps

скриншоты

MediaInfo

Общее
Полное имя : D:\Mult\Союзмультфильм\Два билета в Индию.1985.WEBRip 1080p.mp4
Формат : MPEG-4
Профиль формата : Base Media
Идентификатор кодека : isom (isom/iso2/avc1/mp41)
Размер файла : 760 Мбайт
Продолжительность : 19 м. 46 с.
Общий поток : 5378 Кбит/сек
Программа кодирования : Lavf58.20.100
Видео
Идентификатор : 1
Формат : AVC
Формат/Информация : Advanced Video Codec
Профиль формата : [email protected]
Настройки формата : CABAC / 4 Ref Frames
Параметр CABAC формата : Да
Параметр RefFrames формата : 4 кадра
Идентификатор кодека : avc1
Идентификатор кодека/Информация : Advanced Video Coding
Продолжительность : 19 м. 46 с.
Битрейт : 5120 Кбит/сек
Ширина : 1920 пикселей
Высота : 1080 пикселей
Соотношение сторон : 16:9
Режим частоты кадров : Постоянный
Частота кадров : 24,000 кадра/сек
Цветовое пространство : YUV
Субдискретизация насыщенности : 4:2:0
Битовая глубина : 8 бит
Тип развёртки : Прогрессивная
Бит/(Пиксели*Кадры) : 0.103
Размер потока : 724 Мбайт (95%)
Библиотека кодирования : x264 core 148
Настройки программы : cabac=1 / ref=3 / deblock=1:0:0 / analyse=0x3:0x113 / me=hex / subme=7 / psy=1 / psy_rd=1.00:0.00 / mixed_ref=1 / me_range=16 / chroma_me=1 / trellis=1 / 8x8dct=1 / cqm=0 / deadzone=21,11 / fast_pskip=1 / chroma_qp_offset=-2 / threads=34 / lookahead_threads=5 / sliced_threads=0 / nr=0 / decimate=1 / interlaced=0 / bluray_compat=0 / constrained_intra=0 / bframes=6 / b_pyramid=2 / b_adapt=1 / b_bias=0 / direct=1 / weightb=1 / open_gop=0 / weightp=2 / keyint=48 / keyint_min=25 / scenecut=0 / intra_refresh=0 / rc_lookahead=40 / rc=2pass / mbtree=1 / bitrate=5120 / ratetol=1.0 / qcomp=0.60 / qpmin=0 / qpmax=69 / qpstep=4 / cplxblur=20.0 / qblur=0.5 / vbv_maxrate=7680 / vbv_bufsize=20480 / nal_hrd=none / filler=0 / ip_ratio=1.40 / aq=1:1.00
Дата пометки : UTC 2019-12-16 15:32:44
Аудио
Идентификатор : 2
Формат : AAC
Формат/Информация : Advanced Audio Codec
Профиль формата : LC
Идентификатор кодека : mp4a-40-2
Продолжительность : 19 м. 46 с.
Продолжительность оригинала : 19 м. 46 с.
Вид битрейта : Постоянный
Битрейт : 256 Кбит/сек
Каналы : 2 канала
Расположение каналов : Front: L R
Частота : 48,0 КГц
Частота кадров : 46,875 кадров/сек (1024 SPF)
Метод сжатия : С потерями
Размер потока : 36,2 Мбайт (5%)
Размер потока оригинала : 36,2 Мбайт (5%)
Default : Да
AlternateGroup/String : 1
Дата пометки : UTC 2019-12-16 15:32:44

If your ratio falls below 0.3, you will not be able to download Torrents! More about the rating.

[erzsebet.pl].t80740.torrent
Torrent: Registered   [ 2020-03-17 17:26 ]

Download .torrent

Download

15 KB

Status: checked
Completed: 142 times
Size: 760 MB
terms.php

#1

17-Mar-2020 17:25

[Profile]  [PM] 
Display posts:    

You cannot post new topics in this forum
You cannot reply to topics in this forum
You cannot edit your posts in this forum
You cannot delete your posts in this forum
You cannot vote in polls in this forum
You cannot attach files in this forum
You can download files in this forum
User agreement
For copyright holders
Advertise on this site

Скачайте на халяву через торрент на трекере erzsebet.pl

!ATTENTION!
The site does not give electronic versions of products, and is engaged only in a collecting and cataloguing of the references sent and published at a forum by our readers. If you are the legal owner of any submitted material and do not wish that the reference to it was in our catalogue, contact us and we shall immediately remove her. Files for an exchange on tracker are given by users of a site, and the administration does not bear the responsibility for their maintenance. The request to not fill in the files protected by copyrights, and also files of the illegal maintenance!