Адреналин / Адреналин: Страх погони / Адреналин: Чувство страха / Adrenalin: Fear the Rush (Альберт Пьюн / Albert Pyun) [1996, США, фантастика, боевик, VHSRip] AVO (Сергей Визгунов) + HardSub Dut

DL-List and Torrent activity
Size:  1.09 GB   |    Registered:  2 years 9 months   |    Completed:  16 times
Seeders:  2   Leechers:  1   Show peers in full details
 
   
 
 

erzsebet.org ®

Longevity:
2 years 9 months
Posts:
47596

[Quote] 

Адреналин / Адреналин: Страх погони / Адреналин: Чувство страха / Adrenalin: Fear the Rush
[Short Version]
«If he's not dead by dawn...we are»
Страна: США
Жанр: фантастика, боевик
Год выпуска: 1996
Продолжительность: 01:12:49
Перевод: Авторский (одноголосый закадровый) Сергей Визгунов
Субтитры: нидерландские (hardsub)
Режиссер: Альберт Пьюн / Albert Pyun
В ролях: Кристофер Ламберт, Наташа Хенстридж, Норберт Вайссер, Элизабет Барондес, Ксавьер Де Клайн, Крэйг Дэвис, Николас Гест, Эндрю Дивофф, Джон Х. Эпштейн, Мириам Зезулкова
Описание: США, Бостон, 2007 год. Жестокие убийства потрясают город. Бесстрашные полицейские Лемью и Делон, заручившись поддержкой двух коллег, преследуют убийцу-мутанта, скрывающегося от людей в темноте тоннелей и вентиляционных шахт. Понимая, что только они смогут остановить чудовище, полицейские твердо решают довести дело до конца и уничтожить исчадие ада, грозящее заразить людей смертельным вирусом. У них есть только два часа на то, чтобы предотвратить катастрофу.
Доп. информация: Оцифровка VHS (личный архив) и получение VHSRip alenavova
Эксклюзив для erzsebet.org. При размещении данного релиза на других сайтах ссылка на автора alenavova обязательна.
Релиз
Сэмпл: https://yadi.sk/i/8d0YeQst3PLjjq
Качество видео: VHSRip
Формат видео: AVI
Видео: 704x528 (1.33:1), 25 fps, XviD build 73 ~1938 kbps avg, 0.21 bit/pixel
Аудио: 48 kHz, AC3 Dolby Digital, 2/0 (L,R) ch, ~192 kbps

MediaInfo

Адреналин - Adrenalin Fear the Rush [by alenavova].avi
Format : AVI
Format/Info : Audio Video Interleave
File size : 1.09 GiB
Duration : 1 h 12 min
Overall bit rate : 2 140 kb/s
Movie name : Адреналин - Adrenalin Fear the Rush [by alenavova]
Director : by alenavova
Writing application : VirtualDubMod 1.5.10.3 | www.virtualdub-fr.org || (build 2550/release)
Copyright : Edich2
Comment : erzsebet.org
Video
ID : 0
Format : MPEG-4 Visual
Format profile : Advanced [email protected]
Format settings, BVOP : 2
Format settings, QPel : No
Format settings, GMC : No warppoints
Format settings, Matrix : Custom
Codec ID : XVID
Codec ID/Hint : XviD
Duration : 1 h 12 min
Bit rate : 1 938 kb/s
Width : 704 pixels
Height : 528 pixels
Display aspect ratio : 4:3
Frame rate : 25.000 FPS
Color space : YUV
Chroma subsampling : 4:2:0
Bit depth : 8 bits
Scan type : Progressive
Compression mode : Lossy
Bits/(Pixel*Frame) : 0.209
Stream size : 1 010 MiB (91%)
Writing library : XviD 73
Audio
ID : 1
Format : AC-3
Format/Info : Audio Coding 3
Format settings, Endianness : Big
Codec ID : 2000
Duration : 1 h 12 min
Bit rate mode : Constant
Bit rate : 192 kb/s
Channel(s) : 2 channels
Channel positions : Front: L R
Sampling rate : 48.0 kHz
Frame rate : 31.250 FPS (1536 spf)
Bit depth : 16 bits
Compression mode : Lossy
Stream size : 100.0 MiB (9%)
Alignment : Split accross interleaves
Interleave, duration : 40 ms (1.00 video frame)
Interleave, preload duratio : 500 ms
Service kind : Complete Main

Скриншоты


If your ratio falls below 0.3, you will not be able to download Torrents! More about the rating.

[erzsebet.pl].t808.torrent
Torrent: Registered   [ 2017-12-02 17:17 ]

Download .torrent

Download

11 KB

Status: checked
Completed: 16 times
Size: 1.09 GB
terms.php

#1

02-Dec-2017 17:16

[Profile]  [PM] 
Display posts:    

You cannot post new topics in this forum
You cannot reply to topics in this forum
You cannot edit your posts in this forum
You cannot delete your posts in this forum
You cannot vote in polls in this forum
You cannot attach files in this forum
You can download files in this forum
User agreement
For copyright holders
Advertise on this site

Скачайте на халяву через торрент на трекере erzsebet.pl

!ATTENTION!
The site does not give electronic versions of products, and is engaged only in a collecting and cataloguing of the references sent and published at a forum by our readers. If you are the legal owner of any submitted material and do not wish that the reference to it was in our catalogue, contact us and we shall immediately remove her. Files for an exchange on tracker are given by users of a site, and the administration does not bear the responsibility for their maintenance. The request to not fill in the files protected by copyrights, and also files of the illegal maintenance!