Претендент / The Contender (Род Лури / Rod Lurie) [2000, США, Германия, Великобритания, триллер, драма, WEB-DLRip] AVO (Сергей Визгунов)

DL-List and Torrent activity
Size:  2.05 GB   |    Registered:  2 years 9 months   |    Completed:  16 times
Seeders:  2  
 
   
 
 

erzsebet.org ®

Longevity:
2 years 9 months
Posts:
47596

[Quote] 

Претендент / The Contender
Страна: США, Германия, Великобритания
Жанр: триллер, драма
Год выпуска: 2000
Продолжительность: 02:06:38
Перевод: Авторский (одноголосый закадровый) Сергей Визгунов
Субтитры: нет
Режиссер: Род Лури / Rod Lurie
В ролях: Гэри Олдман, Джоан Аллен, Джефф Бриджес, Кристиан Слэйтер, Сэм Эллиотт, Уильям Л. Питерсен, Сол Рубинек, Филип Бейкер Холл, Майк Байндер
Описание: Президент США Джексон Ивэнс, которому вскоре предстоит покинуть Белый дом, желая навсегда остаться в истории страны, выдвигает на пост скончавшегося вице-президента женщину, сенатора Лэйн Хенсон, вызывая этим сенсационным решением бурные дебаты в правительстве и обществе. Ему решительно противостоит конгрессмен Шелдон Раньон, у которого есть свой кандидат на этот пост. Наплевав на моральные и этические нормы, он придает гласности факты распутного поведения Лэйн Хенсон в студенческие годы, стремясь «похоронить» сенатора любыми, даже самыми грязными средствами. Теперь умной и порядочной женщине, поставленной перед самым трудным выбором в ее жизни, предстоит решить — сойти ли ей с политической арены, навсегда запятнав себя позором, или продолжить борьбу, противостоя могущественным и безжалостным врагам....
Доп. информация: Выражаю огромную благодарность Нордеру за синхронизацию звуковой дорожки. Дорога с Визгуновым приобретена в сети.
Сэмпл: http://multi-up.com/1174509
Качество видео: WEB-DLRip (Исходник The Contender_2000_720p_ WEB_DL_new / KinoZal)
Формат видео: AVI
Видео: XviD 73, 720x400, (16:9), 23,976 fps, 1923 Кбит/с, 8 бит, 0.28 bit/pixel
Аудио: Русский (АС3, 6 ch (Front: L C R, Side: L R, LFE), 48,0 KHz, 384 Kbps)

MediaInfo

Общее
Полное имя : D:\Видеофильмы\В и д е о\Претендент (триллер, драма, 2000 год).avi
Формат : AVI
Формат/Информация : Audio Video Interleave
Профиль формата : OpenDML
Размер файла : 2,05 Гбайт
Продолжительность : 2 ч. 6 м.
Общий поток : 2319 Кбит/сек
Программа кодирования : VirtualDubMod 1.5.10.2 (build 2540/release)
Библиотека кодирования : VirtualDubMod build 2540/release
Видео
Идентификатор : 0
Формат : MPEG-4 Visual
Профиль формата : Advanced [email protected]
Параметр BVOP формата : 2
Параметр QPel формата : Нет
Параметр GMC формата : Без точки перехода
Параметр матрицы формата : Выборочная
Идентификатор кодека : XVID
Идентификатор кодека/Подсказка : XviD
Продолжительность : 2 ч. 6 м.
Битрейт : 1923 Кбит/сек
Ширина : 720 пикселей
Высота : 400 пикселей
Соотношение сторон : 16:9
Частота кадров : 23,976 (23976/1000) кадра/сек
Цветовое пространство : YUV
Субдискретизация насыщенности : 4:2:0
Битовая глубина : 8 бит
Тип развёртки : Прогрессивная
Метод сжатия : С потерями
Бит/(Пиксели*Кадры) : 0.278
Размер потока : 1,70 Гбайт (83%)
Библиотека кодирования : XviD 73
Аудио
Идентификатор : 1
Формат : AC-3
Формат/Информация : Audio Coding 3
Расширение режима : CM (complete main)
Параметр Endianness формата : Big
Идентификатор кодека : 2000
Продолжительность : 2 ч. 6 м.
Вид битрейта : Постоянный
Битрейт : 384 Кбит/сек
Каналы : 6 каналов
Расположение каналов : Front: L C R, Side: L R, LFE
Частота : 48,0 КГц
Частота кадров : 31,250 кадров/сек (1536 spf)
Метод сжатия : С потерями
Размер потока : 348 Мбайт (17%)
Выравнивание : Разделение по промежуткам
Продолжительность промежутка : 42 мс. (1,00 видеокадр)
Время предзагрузки промежутка : 500 мс.

Скриншот c названием фильма

Скриншоты

If your ratio falls below 0.3, you will not be able to download Torrents! More about the rating.

[erzsebet.pl].t814.torrent
Torrent: Registered   [ 2017-12-02 17:17 ]

Download .torrent

Download

11 KB

Status: checked
Completed: 16 times
Size: 2.05 GB
terms.php

#1

02-Dec-2017 17:16

[Profile]  [PM] 
Display posts:    

You cannot post new topics in this forum
You cannot reply to topics in this forum
You cannot edit your posts in this forum
You cannot delete your posts in this forum
You cannot vote in polls in this forum
You cannot attach files in this forum
You can download files in this forum
User agreement
For copyright holders
Advertise on this site

Скачайте на халяву через торрент на трекере erzsebet.pl

!ATTENTION!
The site does not give electronic versions of products, and is engaged only in a collecting and cataloguing of the references sent and published at a forum by our readers. If you are the legal owner of any submitted material and do not wish that the reference to it was in our catalogue, contact us and we shall immediately remove her. Files for an exchange on tracker are given by users of a site, and the administration does not bear the responsibility for their maintenance. The request to not fill in the files protected by copyrights, and also files of the illegal maintenance!