Вулкан / Volcano (Мик Джексон / Mick Jackson) [1997, США, фантастика, боевик, триллер, драма, BDRip] DVO (Премьер Видео Фильм) + AVO (Визгунов) + MVO (ОРТ)

DL-List and Torrent activity
Size:  1.47 GB   |    Registered:  2 years 9 months   |    Completed:  16 times
Seeders:  3   Leechers:  1   Show peers in full details
 
   
 
 

erzsebet.org ®

Longevity:
2 years 9 months
Posts:
47596

[Quote] 

Вулкан / Volcano-Просыпается подземный огонь, и человек оказывается лицом к лицу с великими и жестокими силами.
Цивилизация - только тонкая плёнка на поверхности разъярённой планеты.
Единственная надежда на спасение в несгибаемости человеческого духа.
- Год выпуска: 1997
Страна: США
Жанр: фантастика, боевик, триллер, драма
Продолжительность: 01:43:51
Перевод: Профессиональный (двухголосый закадровый) - Премьер Видео Фильм
Перевод 2: Авторский (одноголосый закадровый) - Сергей Визгунов
Перевод 3: Профессиональный (многоголосый закадровый) - ОРТ
Субтитры: нет
Режиссер: Мик Джексон / Mick Jackson
В ролях: Томми ли Джонс (Mike Roark), Энн Хеч (Dr. Amy Barnes), Габи Хоффманн (Kelly Roark), Дон Чидл (Emmit Reese), Жаклин Ким (Dr. Jaye Calder), Кит Дэвид (Police Lieutenant Ed Fox), Джон Корбетт (Norman Calder), Майкл Рисполи (Gator Harris), Джон Кэрролл Линч (Stan Olber), Марселло Тедфорд (Kevin)-Мировая премьера: 25 апреля 1997-Описание: Лос-Анджелес на своем веку достаточно повидал стихийных бедствий: землетрясений, пожаров, наводнений. Но сейчас «городу ангелов» предстоит столкнуться с самой страшной из когда-либо переживаемых им катастроф, которая грозит стереть его с лица земли. В одном из самых населенных районов Лос-Анджелеса внезапно пришел в активное действие вулкан. Раскаленная, грозящая смертью лава уже начала выплескиваться на улицы… Но, как всегда, герой появляется вовремя — на этот раз в облике мужественного офицера службы спасения в случае стихийных бедствий, который возглавляет борьбу со стихией…-Благодарности:
dalemake - видеоряд.
alenavova - личная оцифровка звука со своей лицензионной видеокассеты от видео-компании Премьер Видео Фильм.
Fikaloid - личная оцифровка Визгунова со своей видеокассеты.
Haos-22 - личная запись перевода с телеканала ОРТ в начале 2000-х годов через видеомагнитофон и оцифровка с видеокассеты.
JUSTKANT - синхронизация переводов.-На русский язык фильм озвучен кинокомпанией "Селена Интернешнл" по заказу Общественного Российского Телевидения.
Текст читают Виктор Петров, Олег Форостенко, Ольга Гаспарова и Людмила Гнилова.
На русский язык фильм озвучен по заказу Премьер Видео Фильм.
Текст читают Игорь Тарадайкин и Светлана Старикова.-
Рейтинг

MPAA: PG-13 - Детям до 13 лет просмотр не желателен-Качество видео: BDRip
Формат видео: AVI -> //Сэмпл//
Видео: XviD, 720x400 (16:9), 23.976 fps, 1425 kbps avg
Аудио:
1 - 48 khz, AC3 Dolby Digital, 2/0 (L,R) ch, ~192 kbps [Премьер Видео Фильм] VHSRip
2 - 48 khz, AC3 Dolby Digital, 2/0 (L,R) ch, ~192 kbps [Визгунов] VHSRip
3 - 48 khz, AC3 Dolby Digital, 2/0 (L,R) ch, ~192 kbps [ОРТ / Первый канал / РЕН-ТВ / R5] VHSRip-ТВ-РАЗДАЧА ОБНОВЛЕНА 01.11.2017
Оригинальная дорожка заменена на два перевода: Премьер Видео Фильм и Визгунов
Просьба перескачать торрент!

Информация о переводах

Премьер Видео Фильм и Визгунов в моей раздаче немного лучшего качества, чем у таких же переводов на трекере.
Сравнение звука по качеству можно послушать в сэмпле внизу, там всё подробно написано.
Перевод ОРТ решил не сравнивать, и так будет понятно, что в моей раздаче будет худший звук. Он добавлен в раздачу просто так, на всякий пожарный случай.

MediaInfo

General
Complete name : D:\Вулкан (Премьер Видео Фильм + Визгунов + ОРТ).avi
Format : AVI
Format/Info : Audio Video Interleave
File size : 1.47 GiB
Duration : 1 h 43 min
Overall bit rate : 2 020 kb/s
Movie name : Вулкан / Volcano (Премьер Видео Фильм + Визгунов + ОРТ/REN-TV/R5)
Director : JUSTKANT
Writing application : VirtualDubMod 1.5.10.3 (build 2550/release)
Copyright : На русский язык фильм озвучен по заказу ОРТ
Comment : Качество звука: Премьер Видео Фильм - VHSRip (alenavova) + Визгунов - VHSRip (Fikaloid) и ОРТ - VHSRipТВ (Haos-22)
Video
ID : 0
Format : MPEG-4 Visual
Format profile : Advanced [email protected]
Format settings, BVOP : 1
Format settings, QPel : No
Format settings, GMC : No warppoints
Format settings, Matrix : Custom
Codec ID : XVID
Codec ID/Hint : XviD
Duration : 1 h 43 min
Bit rate : 1 425 kb/s
Width : 688 pixels
Height : 384 pixels
Display aspect ratio : 16:9
Frame rate : 23.976 (24000/1001) FPS
Color space : YUV
Chroma subsampling : 4:2:0
Bit depth : 8 bits
Scan type : Progressive
Compression mode : Lossy
Bits/(Pixel*Frame) : 0.225
Stream size : 1.03 GiB (71%)
Writing library : XviD 73
Audio #1
ID : 1
Format : AC-3
Format/Info : Audio Coding 3
Format settings, Endianness : Big
Codec ID : 2000
Duration : 1 h 43 min
Bit rate mode : Constant
Bit rate : 192 kb/s
Channel(s) : 2 channels
Channel positions : Front: L R
Sampling rate : 48.0 kHz
Frame rate : 31.250 FPS (1536 SPF)
Bit depth : 16 bits
Compression mode : Lossy
Stream size : 143 MiB (10%)
Alignment : Split accross interleaves
Interleave, duration : 42 ms (1.00 video frame)
Interleave, preload duratio : 500 ms
Title : Премьер Видео Фильм: Игорь Тарадайкин и Светлана Старикова
Service kind : Complete Main
Audio #2
ID : 2
Format : AC-3
Format/Info : Audio Coding 3
Format settings, Endianness : Big
Codec ID : 2000
Duration : 1 h 43 min
Bit rate mode : Constant
Bit rate : 192 kb/s
Channel(s) : 2 channels
Channel positions : Front: L R
Sampling rate : 48.0 kHz
Frame rate : 31.250 FPS (1536 SPF)
Bit depth : 16 bits
Compression mode : Lossy
Stream size : 143 MiB (10%)
Alignment : Split accross interleaves
Interleave, duration : 42 ms (1.00 video frame)
Interleave, preload duratio : 500 ms
Title : Сергей Визгунов (VHSRip)
Service kind : Complete Main
Audio #3
ID : 3
Format : AC-3
Format/Info : Audio Coding 3
Format settings, Endianness : Big
Codec ID : 2000
Duration : 1 h 43 min
Bit rate mode : Constant
Bit rate : 192 kb/s
Channel(s) : 2 channels
Channel positions : Front: L R
Sampling rate : 48.0 kHz
Frame rate : 31.250 FPS (1536 SPF)
Bit depth : 16 bits
Compression mode : Lossy
Stream size : 143 MiB (10%)
Alignment : Split accross interleaves
Interleave, duration : 42 ms (1.00 video frame)
Interleave, preload duratio : 500 ms
Title : ОРТ/REN-TV/R5: Виктор Петров, Олег Форостенко и Ольга Гаспарова
Service kind : Complete Main

Скриншот c названием фильма

Скриншоты

If your ratio falls below 0.3, you will not be able to download Torrents! More about the rating.

[erzsebet.pl].t817.torrent
Torrent: Registered   [ 2017-12-02 17:17 ]

Download .torrent

Download

15 KB

Status: checked
Completed: 16 times
Size: 1.47 GB
terms.php

#1

02-Dec-2017 17:16

[Profile]  [PM] 
Display posts:    

You cannot post new topics in this forum
You cannot reply to topics in this forum
You cannot edit your posts in this forum
You cannot delete your posts in this forum
You cannot vote in polls in this forum
You cannot attach files in this forum
You can download files in this forum
User agreement
For copyright holders
Advertise on this site

Скачайте на халяву через торрент на трекере erzsebet.pl

!ATTENTION!
The site does not give electronic versions of products, and is engaged only in a collecting and cataloguing of the references sent and published at a forum by our readers. If you are the legal owner of any submitted material and do not wish that the reference to it was in our catalogue, contact us and we shall immediately remove her. Files for an exchange on tracker are given by users of a site, and the administration does not bear the responsibility for their maintenance. The request to not fill in the files protected by copyrights, and also files of the illegal maintenance!