Привидения в замке Шпессарт / Das Spukschloß im Spessart / Das Spukschloss im Spessart (Курт Хоффманн / Kurt Hoffmann) [1960, Германия (ФРГ), Комедия, мюзикл, фэнтези, DVDRip] [Полная Версия] Dub (Союзмультфильм) + VO (Культура) + Original Ger

DL-List and Torrent activity
Size:  708 MB   |    Registered:  2 years 9 months   |    Completed:  16 times
Seeders:  1  
 
   
 
 

erzsebet.org ®

Longevity:
2 years 9 months
Posts:
47596

[Quote] 

Привидения в замке Шпессарт / Das Spukschloß im Spessart / Das Spukschloss im Spessart / Полная Версия
Страна: Германия (ФРГ)
Жанр: Комедия, мюзикл, фэнтези
Год выпуска: 1960
Продолжительность: 01:37:18
Перевод 1: Профессиональный (дублированный) Союзмультфильм
Перевод 2: Студийный (одноголосый закадровый) Культура
Субтитры: нет
Оригинальная аудиодорожка: Немецкий
Режиссер: Курт Хоффманн / Kurt Hoffmann
В ролях: Лизелотта Пульвер / Liselotte Pulver ... Шарлотта / Charlotte - дублирует Татьяна Шмыга
Хайнц Бауманн / Heinz Baumann ... Мартин Хартог / Martin Hartog - Владимир Трошин
Ханна Видер / Hanne Wieder ... Катрин / Katrin - Лариса Пашкова
Эльза Вагнер / Elsa Wagner ... Тётя Ивонна / Tante Yvonne - Елена Понсова
Херберт Хюбнер / Herbert Hübner ... Хартог / Hartog - Сергей Курилов
Эрнст Вальдов / Ernst Waldow ... Дядя Эрнст Аугуст Теодор / Onkel Ernst August Teodor - Аркадий Вовси
Хуберт фон Майеринк / Hubert von Meyerinck ... фон Теккель / von Teckel - Владимир Осенев
Ханс Кларин / Hans Clarin ... Принц Калака / Prinz Kalaka - Виктор Сергачев
Пауль Эссер / Paul Esser ... Тони / Toni - Алексей Полевой
Ганс Рихтер / Hans Richter ... Йокель / Jockel - Александр Баранов
Курт Боис / Curt Bois ... Хуго / Hugo - Василий Алчевский
Георг Томалла / Georg Thomalla ... "Дядюшка" Макс / Onkel Max - Зиновий Гердт
Эрнст Бартхельс / Ernst Barthels ... Секретарь принца Калака - Григорий Шпигель (в титрах не указан)
Описание: Во времена мрачного средневековья жители одного маленького прусского городка поймали шайку разбойников, бесчинствовавших в окрестных лесах и приговорили их к смерти, замуровав в подземелье. Формально приговор звучал так:
«Вам, ворам презренным,
Сошедшим с честного пути,
Пока не пали эти стены
Из подземелья не уйти.»
Спустя несколько столетий, уже в середине 20-го века при прокладке шоссе строители случайно разрушают стены подвала, в котором были замурованы разбойники и находят несколько скелетов. Это Хуго, Тони, "дядюшка" Макс, Йогель, Катрин и их собака. Поскольку условия приговора формально были выполнены и стены подземелья были разрушены, то разбойники выходят на свободу, но... теперь они - привидения...
Доп. информация: Рип с моего оригинального DVD за полный дубляж Спасибо CaCa48 студийное VO канала культура снято с ДВД Спасибо Гость за непростой синхрон дорожек под оригинальный диск говорим Спасибо Нордеру. Данный рип имеет нормальное качество и 3 дорожки включая оригинальную сравнение с рипами категории 700 метров смотрим ниже.
PS. На этот фильм дорожки в MVO не существует (на трекере) в всех раздачах одно и то же студийное VO даже там где написано MVO

Сравнение рипов

01. Geist_sa http://erzsebet.org/forum/viewtopic.php?t=235112 - http://screenshotcomparison.com/comparison/123774
02. helenchik http://erzsebet.org/forum/viewtopic.php?t=354737 - http://screenshotcomparison.com/comparison/123775/picture:0
03. tbor52 http://erzsebet.org/forum/viewtopic.php?t=465003 - http://screenshotcomparison.com/comparison/123777
Сэмпл: http://multi-up.com/1176596
Качество видео: DVDRip
Формат видео: AVI
Видео: XviD 688х416, 25.000 fps, 1 017 Kbps
Аудио 1: Русский (MP3 128 kbps 2 ch 48.0 KHz)
Аудио 2: Русский (MP3 128 kbps 2 ch 48.0 KHz)
Аудио 3: Немецкий (MP3 128 kbps 2 ch 48.0 KHz)

MediaInfo

General
Complete name : C:\Documents and Settings\Admin\Мои документы\Downloads\Das Spukschlob Im Spessart 1958.avi
Format : AVI
Format/Info : Audio Video Interleave
File size : 708 MiB
Duration : 1h 37mn
Overall bit rate : 1 017 Kbps
Writing application : VirtualDubMod 1.5.4.1 (build 2066/release)
Writing library : VirtualDubMod build 2066/release
Video
ID : 0
Format : MPEG-4 Visual
Format profile : Advanced [email protected]
Format settings, BVOP : 1
Format settings, QPel : No
Format settings, GMC : No warppoints
Format settings, Matrix : Custom
Codec ID : XVID
Codec ID/Hint : XviD
Duration : 1h 37mn
Bit rate : 615 Kbps
Width : 688 pixels
Height : 416 pixels
Display aspect ratio : 1.654
Frame rate : 25.000 fps
Color space : YUV
Chroma subsampling : 4:2:0
Bit depth : 8 bits
Scan type : Progressive
Compression mode : Lossy
Bits/(Pixel*Frame) : 0.086
Stream size : 428 MiB (60%)
Writing library : XviD 1.2.1 (UTC 2008-12-04)
Audio #1
ID : 1
Format : MPEG Audio
Format version : Version 1
Format profile : Layer 3
Mode : Joint stereo
Mode extension : MS Stereo
Codec ID : 55
Codec ID/Hint : MP3
Duration : 1h 37mn
Bit rate mode : Constant
Bit rate : 128 Kbps
Channel(s) : 2 channels
Sampling rate : 48.0 KHz
Compression mode : Lossy
Stream size : 88.9 MiB (13%)
Alignment : Aligned on interleaves
Interleave, duration : 40 ms (1.00 video frame)
Interleave, preload duration : 504 ms
Writing library : LAME3.99r
Encoding settings : -m j -V 4 -q 5 -lowpass 17 -b 128
Audio #2
ID : 2
Format : MPEG Audio
Format version : Version 1
Format profile : Layer 3
Mode : Joint stereo
Mode extension : MS Stereo
Codec ID : 55
Codec ID/Hint : MP3
Duration : 1h 37mn
Bit rate mode : Constant
Bit rate : 128 Kbps
Channel(s) : 2 channels
Sampling rate : 48.0 KHz
Compression mode : Lossy
Stream size : 88.9 MiB (13%)
Alignment : Aligned on interleaves
Interleave, duration : 40 ms (1.00 video frame)
Interleave, preload duration : 504 ms
Writing library : LAME3.99r
Encoding settings : -m j -V 4 -q 5 -lowpass 17 -b 128
Audio #3
ID : 3
Format : MPEG Audio
Format version : Version 1
Format profile : Layer 3
Mode : Joint stereo
Mode extension : MS Stereo
Codec ID : 55
Codec ID/Hint : MP3
Duration : 1h 37mn
Bit rate mode : Constant
Bit rate : 128 Kbps
Channel(s) : 2 channels
Sampling rate : 48.0 KHz
Compression mode : Lossy
Stream size : 88.9 MiB (13%)
Alignment : Aligned on interleaves
Interleave, duration : 40 ms (1.00 video frame)
Interleave, preload duration : 504 ms
Writing library : LAME3.99r
Encoding settings : -m j -V 4 -q 5 -lowpass 17 -b 128

Скриншот c названием фильма

Скриншоты

If your ratio falls below 0.3, you will not be able to download Torrents! More about the rating.

[erzsebet.pl].t82.torrent
Torrent: Registered   [ 2017-12-02 15:58 ]

Download .torrent

Download

14 KB

Status: checked
Completed: 16 times
Size: 708 MB
terms.php

#1

02-Dec-2017 15:57

[Profile]  [PM] 
Display posts:    

You cannot post new topics in this forum
You cannot reply to topics in this forum
You cannot edit your posts in this forum
You cannot delete your posts in this forum
You cannot vote in polls in this forum
You cannot attach files in this forum
You can download files in this forum
User agreement
For copyright holders
Advertise on this site

Скачайте на халяву через торрент на трекере erzsebet.pl

!ATTENTION!
The site does not give electronic versions of products, and is engaged only in a collecting and cataloguing of the references sent and published at a forum by our readers. If you are the legal owner of any submitted material and do not wish that the reference to it was in our catalogue, contact us and we shall immediately remove her. Files for an exchange on tracker are given by users of a site, and the administration does not bear the responsibility for their maintenance. The request to not fill in the files protected by copyrights, and also files of the illegal maintenance!