Голографический человек / Hologram Man / Cyber Killer (Ричард Пепин / Richard Pepin) [1995, США, Фантастика, DVDRip] AVO (Андрей Гаврилов) + Original Eng

DL-List and Torrent activity
Size:  1.5 GB   |    Registered:  2 years 9 months   |    Completed:  16 times
Seeders:  6   Leechers:  1   Show peers in full details
 
   
 
 

erzsebet.org ®

Longevity:
2 years 9 months
Posts:
47596

[Quote] 

Голографический человек / Hologram Man / Cyber Killer
Full Screen
«A Criminal Mind In An Indestructible Body»
Страна: США
Жанр: Фантастика
Год выпуска: 1995
Продолжительность: 01:37:02
Перевод: Авторский (одноголосый закадровый) Андрей Гаврилов
Субтитры: нет
Оригинальная аудиодорожка: английский
Режиссер: Ричард Пепин / Richard Pepin
В ролях: Джо Лара, Эван Лурье, Майкл Нури, Джон Эймос, Тина Арнинг, Тоди Бернард, Род Бритт, Чак Бутто, Джозеф Кампанелла, Алекс Корд
Описание: Действие фильма происходит в США в Лос-Анджелесе в отдалённом будущем. Городом управляет некая «Калифорнийская корпорация», во главе которой стоит Эдвард Джеймсон. Корпорация фактически захватила город, узурпировав права граждан.
Противостоит корпорации Норман Гэллагер по прозвищу Слэш. В чём-то Норман прав, но он поступает как террорист — убивает часть сотрудников корпорации, губернатора Хэмптона, а также одного из полицейских — Веса Стриклэнда. Поймать же Нормана удаётся полицейскому-новичку Декоде, для которого убитый Вес был лучшим другом и напарником.
Норман Гэллагер получает тюремный срок, но не в простой тюрьме, а в голографической. В этой тюрьме находится мозг Гэллагера и его голографический образ. На бывшего террориста пытаются воздействовать и перевоспитать его. Программа биоперсонального улучшения рассчитана на 5 лет. Через это время бывшего террориста должны выпустить, перепрограммировав его мозг. Но друзьям Нормана удаётся похитить его образ и мозг из голографической тюрьмы до конца срока, когда его ещё не успели перепрограммировать.
Теперь Слэш снова на свободе, кроме того он обладает сверхспособностями — ведь он нематериальная голограмма и может проходить через стены и огонь, а пули и гранатометы не причиняют ему никакого вреда. Слэш хочет отомстить тому, кто его арестовал — Декоде. В перестрелке ему фактически удаётся убить полицейского, но ему помогает его подруга Натали, которая тоже делает его голограммой. И теперь Декода обладает теми же способностями, что и Слэш. Он может сразиться с голографическим преступником один на один, нейтрализовать и остановить его.
Доп. информация: Дорожка с А. Гавриловым синхронизирована и наложена ale_x2008 при помощи Sony Vegas и VirtualDubMod.
За оцифрованную с VHS дорожку благодарим - alenavova
Релиз
Сэмпл: https://yadi.sk/i/MzuoV2_o3PKK45
Качество видео: DVDRip
Формат видео: AVI
Видео: XviD build 50, 704x528 (1.33:1), 25 fps, 1786 kbps avg, 0.19 bit/pixel
Аудио: AC3 Dolby Digital, 48000Hz 2/0 (L,R) ch (stereo), 192.00 kbps avg
Аудио 2: AC3 Dolby Digital, 48000Hz 2/0 (L,R) ch (stereo), 192.00 kbps avg

MediaInfo

Голографический человек - Hologram Man (ale_x2008).avi
Format : AVI
Format/Info : Audio Video Interleave
File size : 1.50 GiB
Duration : 1 h 37 min
Overall bit rate : 2 217 kb/s
Movie name : Голографический человек - Hologram Man (ale_x2008)
Director : by ale_x2008
Writing application : VirtualDubMod 1.5.10.2 (build 2540/release)
Copyright : Edich2
Comment : erzsebet.org
Video
ID : 0
Format : MPEG-4 Visual
Format profile : Advanced [email protected]
Format settings, BVOP : 1
Format settings, QPel : No
Format settings, GMC : No warppoints
Format settings, Matrix : Custom
Codec ID : XVID
Codec ID/Hint : XviD
Duration : 1 h 37 min
Bit rate : 1 787 kb/s
Width : 704 pixels
Height : 528 pixels
Display aspect ratio : 4:3
Frame rate : 25.000 FPS
Color space : YUV
Chroma subsampling : 4:2:0
Bit depth : 8 bits
Scan type : Progressive
Compression mode : Lossy
Bits/(Pixel*Frame) : 0.192
Stream size : 1.21 GiB (81%)
Writing library : XviD 1.2.1 (UTC 2008-12-04)
Audio #1
ID : 1
Format : AC-3
Format/Info : Audio Coding 3
Format settings, Endianness : Big
Codec ID : 2000
Duration : 1 h 37 min
Bit rate mode : Constant
Bit rate : 192 kb/s
Channel(s) : 2 channels
Channel positions : Front: L R
Sampling rate : 48.0 kHz
Frame rate : 31.250 FPS (1536 spf)
Bit depth : 16 bits
Compression mode : Lossy
Stream size : 133 MiB (9%)
Alignment : Split accross interleaves
Interleave, duration : 40 ms (1.00 video frame)
Interleave, preload duratio : 500 ms
Service kind : Complete Main
Audio #2
ID : 2
Format : AC-3
Format/Info : Audio Coding 3
Format settings, Endianness : Big
Codec ID : 2000
Duration : 1 h 37 min
Bit rate mode : Constant
Bit rate : 224 kb/s
Channel(s) : 2 channels
Channel positions : Front: L R
Sampling rate : 48.0 kHz
Frame rate : 31.250 FPS (1536 spf)
Bit depth : 16 bits
Compression mode : Lossy
Stream size : 155 MiB (10%)
Alignment : Split accross interleaves
Interleave, duration : 40 ms (1.00 video frame)
Interleave, preload duratio : 500 ms
Service kind : Complete Main

Скриншоты


If your ratio falls below 0.3, you will not be able to download Torrents! More about the rating.

[erzsebet.pl].t821.torrent
Torrent: Registered   [ 2017-12-02 17:17 ]

Download .torrent

Download

16 KB

Status: checked
Completed: 16 times
Size: 1.5 GB
terms.php

#1

02-Dec-2017 17:16

[Profile]  [PM] 
Display posts:    

You cannot post new topics in this forum
You cannot reply to topics in this forum
You cannot edit your posts in this forum
You cannot delete your posts in this forum
You cannot vote in polls in this forum
You cannot attach files in this forum
You can download files in this forum
User agreement
For copyright holders
Advertise on this site

Скачайте на халяву через торрент на трекере erzsebet.pl

!ATTENTION!
The site does not give electronic versions of products, and is engaged only in a collecting and cataloguing of the references sent and published at a forum by our readers. If you are the legal owner of any submitted material and do not wish that the reference to it was in our catalogue, contact us and we shall immediately remove her. Files for an exchange on tracker are given by users of a site, and the administration does not bear the responsibility for their maintenance. The request to not fill in the files protected by copyrights, and also files of the illegal maintenance!