Простой смертный / Simple mortel (Пьер Жоливе / Pierre Jolivet) [1991, Франция, триллер, научная фантастика, DVDRip] VO (allecs2010)

DL-List and Torrent activity
Size:  697 MB   |    Registered:  2 years 9 months   |    Completed:  16 times
Seeders:  5  
 
   
 
 

erzsebet.org ®

Longevity:
2 years 9 months
Posts:
47596

[Quote] 

Простой смертный / Simple mortel
Страна: Франция
Жанр: триллер, научная фантастика
Год выпуска: 1991
Продолжительность: 01:21:13
-
Перевод: Одноголосый закадровый allecs2010 по субтитрам catbomb (Video Demons)
Субтитры: нет
-
Режиссер: Пьер Жоливе / Pierre Jolivet
В ролях: Филипп Вольтер, Кристоф Бурсейе, Натали Руссел, Ролан Жиро, Майке Джэнсен, Марсель Марешаль, Арлетт Томас, Мишель Ленглини, Денис Гийярд
-
Описание: Молодой исследователь древних языков внезапно начинает получать странные радиограммы на редком языке. Его просят выполнять всякие странные миссии. В конце концов, он понимает, что он всего лишь пешка в межгалактической игре, и что судьба Земли зависит от него.
-
Доп. информация: Видео http://erzsebet.org/forum/viewtopic.php?t=4958182
-
Сэмпл: http://sendfile.su/1373657
-
Качество видео: DVDRip
Формат видео: AVI
Видео: XviD, 1 062 Kbps, 704x228 (2.40:1), 25.000 fps
Аудио: MPEG Audio, Layer 3, MP3, 128 Kbps, 2 channels, 48.0 KHz

MediaInfo

General
Complete name : C:\Users\ALEX\Desktop\Фильмы\Simple mortel.1991.RUS.DVDRip.XviD.MPEG Audio.avi
Format : AVI
Format/Info : Audio Video Interleave
File size : 697 MiB
Duration : 1 h 21 min
Overall bit rate : 1 200 kb/s
Writing application : VirtualDubMod 1.5.10.2 (build 2542/release)
Writing library : VirtualDubMod build 2542/release
Video
ID : 0
Format : MPEG-4 Visual
Format profile : Advanced [email protected]
Format settings : BVOP2
Format settings, BVOP : 2
Format settings, QPel : No
Format settings, GMC : No warppoints
Format settings, Matrix : Default (H.263)
Muxing mode : Packed bitstream
Codec ID : XVID
Codec ID/Hint : XviD
Duration : 1 h 21 min
Bit rate : 1 062 kb/s
Width : 704 pixels
Height : 288 pixels
Display aspect ratio : 2.40:1
Frame rate : 25.000 FPS
Color space : YUV
Chroma subsampling : 4:2:0
Bit depth : 8 bits
Scan type : Progressive
Compression mode : Lossy
Bits/(Pixel*Frame) : 0.210
Stream size : 617 MiB (89%)
Writing library : XviD 1.0.3 (UTC 2004-12-20)
Audio
ID : 1
Format : MPEG Audio
Format version : Version 1
Format profile : Layer 3
Codec ID : 55
Codec ID/Hint : MP3
Duration : 1 h 21 min
Bit rate mode : Constant
Bit rate : 128 kb/s
Channel(s) : 2 channels
Sampling rate : 48.0 kHz
Compression mode : Lossy
Stream size : 74.4 MiB (11%)
Alignment : Aligned on interleaves
Interleave, duration : 40 ms (1.00 video frame)
Interleave, preload duratio : 504 ms

Скриншоты

If your ratio falls below 0.3, you will not be able to download Torrents! More about the rating.

[erzsebet.pl].t824.torrent
Torrent: Registered   [ 2017-12-02 17:17 ]

Download .torrent

Download

14 KB

Status: checked
Completed: 16 times
Size: 697 MB
terms.php

#1

02-Dec-2017 17:16

[Profile]  [PM] 
Display posts:    

You cannot post new topics in this forum
You cannot reply to topics in this forum
You cannot edit your posts in this forum
You cannot delete your posts in this forum
You cannot vote in polls in this forum
You cannot attach files in this forum
You can download files in this forum
User agreement
For copyright holders
Advertise on this site

Скачайте на халяву через торрент на трекере erzsebet.pl

!ATTENTION!
The site does not give electronic versions of products, and is engaged only in a collecting and cataloguing of the references sent and published at a forum by our readers. If you are the legal owner of any submitted material and do not wish that the reference to it was in our catalogue, contact us and we shall immediately remove her. Files for an exchange on tracker are given by users of a site, and the administration does not bear the responsibility for their maintenance. The request to not fill in the files protected by copyrights, and also files of the illegal maintenance!