Освободите Вилли 2: Новое приключение / Free Willy 2: The Adventure Home (Дуайт Х. Литтл / Dwight H. Little) [1995, Франция, США, драма, приключения, семейный, HDRip] MVO (ОРТ) + MVO (ТВЦ)

DL-List and Torrent activity
Size:  1.46 GB   |    Registered:  2 years 9 months   |    Completed:  16 times
Seeders:  4  
 
   
 
 

erzsebet.org ®

Longevity:
2 years 9 months
Posts:
47596

[Quote] 

Освободите Вилли 2: Новое приключение / Free Willy 2: The Adventure Home
Год выпуска: 1995
Страна: Франция, США
Жанр: драма, приключения, семейный
Продолжительность: 01:37:52
Перевод: Профессиональный (многоголосый закадровый) - ОРТ
Перевод 2: Профессиональный (многоголосый закадровый) - ТВЦ
Субтитры: нет
Режиссер: Дуайт Х. Литтл / Dwight H. Little
В ролях: Джейсон Джеймс Рихтер / Jesse, Аугуст Шелленберг / Randolph, Джейн Эткинсон / Annie, Джон Тенни / John Milner, Элизабет Пенья / Kate Haley, Фрэнсис Капра / Elvis, Мэри Кейт Шеллхардт / Nadine, Майкелти Уильямсон / Dwight, М. Эммет Уолш / Bill Wilcox, Майкл Мэдсен / Glenn-Мировая премьера: 19 июля 1995-Описание: Действие фильма разворачивается спустя два года после того, как Вилли был спасен и выпущен на волю. Во время каникул Джесси с семьей живет на побережье. Однажды ночью, расстроенный известием о смерти родной матери, давно оставившей семью, Джесси идет к океану. И вдруг на знакомый звук его губной гармошки появляется Вилли. Но радость от встречи со старым другом омрачается новой опасностью, грозящей Вилли - это нефтяное пятно, образовавшееся от разлива нефти из севшего на мель танкера. К тому же предприимчивые судовладельцы собираются выловить и продать китов. Чтобы помешать им и вновь спасти Вилли от гибели, Джесси и его новым друзьям придется немало потрудиться...-Огромная благодарность:
xelon2006 - видеоряд
pasific2013 - личная запись фильма с телеканала ОРТ через видеомагнитофон и оцифровка звука с видеокассеты.
Валеutrfcvjbyuhk - личная запись фильма с телеканала ТВЦ через видеомагнитофон и оцифровка звука с видеокассеты.
JUSTKANT - синхронизация переводов.-Данные переводы на трекере появляются впервые..
На русский язык фильм озвучен кинокомпанией "Селена Интернешнл" по заказу Общественного Российского Телевидения.
Текст читают Александр Рахленко, Михаил Тихонов и Елена Соловьёва.
На русский язык фильм озвучен по заказу ТВЦ.
Текст читают Александр Новиков, Галина Исхакова и ???-
Рейтинг

MPAA: PG - Рекомендуется присутствие родителей.-Качество видео: HDRip
Формат видео: AVI -> //Сэмпл//
Видео: XviD, 720x304 (2.35:1), 23.976 fps, 1733 kbps
Аудио:
1 - 48 khz, AC3 Dolby Digital, 2/0 (L,R) ch, ~192 kbps [ОРТ] VHSRip-ТВ
2 - 48 khz, AC3 Dolby Digital, 2/0 (L,R) ch, ~192 kbps [ТВЦ] VHSRip-ТВ-РАЗДАЧА ОБНОВЛЕНА!
Добавлен ещё один раритетный многоголосый перевод с телеканала ОРТ.
Просьба перескачать торрент!

MediaInfo

General
Complete name : D:\Освободите Вилли 2. Новое приключение (ОРТ + ТВЦ).avi
Format : AVI
Format/Info : Audio Video Interleave
File size : 1.46 GiB
Duration : 1 h 37 min
Overall bit rate : 2 131 kb/s
Movie name : Освободите Вилли 2: Новое приключение / Free Willy 2: The Adventure Home (ОРТ + ТВЦ)
Director : JUSTKANT
Writing application : VirtualDubMod 1.5.10.3 (build 2550/release)
Copyright : На русский язык фильм озвучен кинокомпанией "Селена Интернешнл" по заказу ОРТ
Comment : Качество звука: ОРТ - VHSRipТВ (pasific2013) и ТВЦ - VHSRipТВ (Валеutrfcvjbyuhk)
Video
ID : 0
Format : MPEG-4 Visual
Format profile : Advanced [email protected]
Format settings, BVOP : 1
Format settings, QPel : No
Format settings, GMC : No warppoints
Format settings, Matrix : Custom
Codec ID : XVID
Codec ID/Hint : XviD
Duration : 1 h 37 min
Bit rate : 1 733 kb/s
Width : 720 pixels
Height : 304 pixels
Display aspect ratio : 2.35:1
Frame rate : 23.976 (24000/1001) FPS
Color space : YUV
Chroma subsampling : 4:2:0
Bit depth : 8 bits
Scan type : Progressive
Compression mode : Lossy
Bits/(Pixel*Frame) : 0.330
Stream size : 1.18 GiB (81%)
Writing library : XviD 73
Audio #1
ID : 1
Format : AC-3
Format/Info : Audio Coding 3
Format settings, Endianness : Big
Codec ID : 2000
Duration : 1 h 37 min
Bit rate mode : Constant
Bit rate : 192 kb/s
Channel(s) : 2 channels
Channel positions : Front: L R
Sampling rate : 48.0 kHz
Frame rate : 31.250 FPS (1536 SPF)
Bit depth : 16 bits
Compression mode : Lossy
Stream size : 134 MiB (9%)
Alignment : Split accross interleaves
Interleave, duration : 42 ms (1.00 video frame)
Interleave, preload duratio : 500 ms
Title : ОРТ: Александр Рахленко + ???
Service kind : Complete Main
Audio #2
ID : 2
Format : AC-3
Format/Info : Audio Coding 3
Format settings, Endianness : Big
Codec ID : 2000
Duration : 1 h 37 min
Bit rate mode : Constant
Bit rate : 192 kb/s
Channel(s) : 2 channels
Channel positions : Front: L R
Sampling rate : 48.0 kHz
Frame rate : 31.250 FPS (1536 SPF)
Bit depth : 16 bits
Compression mode : Lossy
Stream size : 134 MiB (9%)
Alignment : Split accross interleaves
Interleave, duration : 42 ms (1.00 video frame)
Interleave, preload duratio : 500 ms
Title : ТВЦ: Александр Новиков + ???
Service kind : Complete Main

Скриншот c названием фильма

Скриншоты

If your ratio falls below 0.3, you will not be able to download Torrents! More about the rating.

[erzsebet.pl].t827.torrent
Torrent: Registered   [ 2017-12-02 17:17 ]

Download .torrent

Download

15 KB

Status: checked
Completed: 16 times
Size: 1.46 GB
terms.php

#1

02-Dec-2017 17:16

[Profile]  [PM] 
Display posts:    

You cannot post new topics in this forum
You cannot reply to topics in this forum
You cannot edit your posts in this forum
You cannot delete your posts in this forum
You cannot vote in polls in this forum
You cannot attach files in this forum
You can download files in this forum
User agreement
For copyright holders
Advertise on this site

Скачайте на халяву через торрент на трекере erzsebet.pl

!ATTENTION!
The site does not give electronic versions of products, and is engaged only in a collecting and cataloguing of the references sent and published at a forum by our readers. If you are the legal owner of any submitted material and do not wish that the reference to it was in our catalogue, contact us and we shall immediately remove her. Files for an exchange on tracker are given by users of a site, and the administration does not bear the responsibility for their maintenance. The request to not fill in the files protected by copyrights, and also files of the illegal maintenance!