Одинокая белая женщина / Single White Female (Барбет Шредер / Barbet Schroeder) [1992, США, триллер, драма, криминал, WEB-DLRip] MVO (НТВ) + AVO (Сонькин)

DL-List and Torrent activity
Size:  1.46 GB   |    Registered:  2 years 9 months   |    Completed:  16 times
Seeders:  4   Leechers:  1   Show peers in full details
 
   
 
 

erzsebet.org ®

Longevity:
2 years 9 months
Posts:
47596

[Quote] 

Одинокая белая женщина / Single White Female
Год выпуска: 1992
Страна: США
Жанр: триллер, драма, криминал
Продолжительность: 01:47:51
Перевод: Профессиональный (многоголосый закадровый) - НТВ
Перевод 2: Авторский (одноголосый закадровый) - Владимир Сонькин
Субтитры: нет
Режиссер: Барбет Шредер / Barbet Schroeder
В ролях: Бриджит Фонда / Allison Jones, Дженнифер Джейсон Ли / Hedra Carlson, Стивен Вебер / Sam Rawson, Питер Фридман / Graham Knox, Стивен Тоболовски / Mitchell Myerson-Мировая премьера: 14 августа 1992-Описание: По мотивам романа Джона Лутца "ОБЖ ищет такую же". Молодая художница Элли Джонс, поссорившись со своим другом Сэмом, сдает вторую комнату застенчивой девушке Хеди Карлсон. Обе - одного возраста, и, казалось бы, между девушками должны установиться хорошие, дружеские отношения. Но вскоре Элисон замечает странности в поведении квартирантки: та одевается в ее одежду, начинает имитировать внешность и поведение Элли. После того, как Элисон узнает, что бесследно исчезает письмо, отправленное ей Сэмом, у нее появляется нехорошее предчувствие...-Исходник видео: WEB-DL 720p, найденный в сети.-Огромная благодарность:
pasific2013 - личная запись фильма с телеканала НТВ через видеомагнитофон и оцифровка звука с видеокассеты.
RockNIK - личная оцифровка Сонькина с видеокассеты.
JUSTKANT - синхронизация переводов.-Данные переводы на трекере появляются впервые..
На русский язык фильм озвучен телекомпанией НТВ+ по заказу НТВ.
Текст читают Александр Быков, Ольга Голованова, Анна Каменкова и Марина Тарасова.-
Рейтинг

MPAA: R - Лицам до 17 лет обязательно присутствие взрослого.-Качество видео: WEB-DLRip
Формат видео: AVI -> //Сэмпл//
Видео: XviD, 720x400 (16:9), 23.976 fps, 1539 kbps
Аудио:
1 - 48 khz, AC3 Dolby Digital, 2/0 (L,R) ch, ~192 kbps [НТВ] VHSRip-ТВ
2 - 48 khz, AC3 Dolby Digital, 2/0 (L,R) ch, ~192 kbps [Владимир Сонькин] VHSRip

MediaInfo

General
Complete name : D:\Одинокая белая женщина (НТВ + Сонькин).avi
Format : AVI
Format/Info : Audio Video Interleave
File size : 1.46 GiB
Duration : 1 h 47 min
Overall bit rate : 1 937 kb/s
Movie name : Одинокая белая женщина / Single White Female (НТВ + Сонькин)
Director : JUSTKANT
Writing application : VirtualDubModRus 1.5.10.2 (build 2542/release)
Copyright : На русский язык фильм озвучен телекомпанией НТВ+ по заказу НТВ
Comment : Качество звука: НТВ - VHSRipТВ (pasific2013) и Сонькин - VHSRip (RockNIK)
Video
ID : 0
Format : MPEG-4 Visual
Format profile : Advanced [email protected]
Format settings, BVOP : 1
Format settings, QPel : No
Format settings, GMC : No warppoints
Format settings, Matrix : Custom
Codec ID : XVID
Codec ID/Hint : XviD
Duration : 1 h 47 min
Bit rate : 1 539 kb/s
Width : 720 pixels
Height : 400 pixels
Display aspect ratio : 16:9
Frame rate : 23.976 (24000/1001) FPS
Color space : YUV
Chroma subsampling : 4:2:0
Bit depth : 8 bits
Scan type : Progressive
Compression mode : Lossy
Bits/(Pixel*Frame) : 0.223
Stream size : 1.16 GiB (79%)
Writing library : XviD 1.2.1 (UTC 2008-12-04)
Audio #1
ID : 1
Format : AC-3
Format/Info : Audio Coding 3
Format settings, Endianness : Big
Codec ID : 2000
Duration : 1 h 47 min
Bit rate mode : Constant
Bit rate : 192 kb/s
Channel(s) : 2 channels
Channel positions : Front: L R
Sampling rate : 48.0 kHz
Frame rate : 31.250 FPS (1536 SPF)
Bit depth : 16 bits
Compression mode : Lossy
Stream size : 148 MiB (10%)
Alignment : Split accross interleaves
Interleave, duration : 42 ms (1.00 video frame)
Interleave, preload duratio : 500 ms
Title : НТВ+ по заказу НТВ: Александр Быков, Ольга Голованова, Анна Каменкова и Марина Тарасова
Service kind : Complete Main
Audio #2
ID : 2
Format : AC-3
Format/Info : Audio Coding 3
Format settings, Endianness : Big
Codec ID : 2000
Duration : 1 h 47 min
Bit rate mode : Constant
Bit rate : 192 kb/s
Channel(s) : 2 channels
Channel positions : Front: L R
Sampling rate : 48.0 kHz
Frame rate : 31.250 FPS (1536 SPF)
Bit depth : 16 bits
Compression mode : Lossy
Stream size : 148 MiB (10%)
Alignment : Split accross interleaves
Interleave, duration : 42 ms (1.00 video frame)
Interleave, preload duratio : 500 ms
Title : Владимир Сонькин (VHSRip)
Service kind : Complete Main

Скриншот c названием фильма

Скриншоты

If your ratio falls below 0.3, you will not be able to download Torrents! More about the rating.

[erzsebet.pl].t830.torrent
Torrent: Registered   [ 2017-12-02 17:17 ]

Download .torrent

Download

15 KB

Status: checked
Completed: 16 times
Size: 1.46 GB
terms.php

#1

02-Dec-2017 17:16

[Profile]  [PM] 
Display posts:    

You cannot post new topics in this forum
You cannot reply to topics in this forum
You cannot edit your posts in this forum
You cannot delete your posts in this forum
You cannot vote in polls in this forum
You cannot attach files in this forum
You can download files in this forum
User agreement
For copyright holders
Advertise on this site

Скачайте на халяву через торрент на трекере erzsebet.pl

!ATTENTION!
The site does not give electronic versions of products, and is engaged only in a collecting and cataloguing of the references sent and published at a forum by our readers. If you are the legal owner of any submitted material and do not wish that the reference to it was in our catalogue, contact us and we shall immediately remove her. Files for an exchange on tracker are given by users of a site, and the administration does not bear the responsibility for their maintenance. The request to not fill in the files protected by copyrights, and also files of the illegal maintenance!