Зверофабрика / Зона волков / Зверинец / Animal Factory (Стив Бушеми / Steve Buscemi) [2000, США, драма, криминал, WEB-DLRip] MVO (Первый канал) + AVO (Дольский)

DL-List and Torrent activity
Size:  1.42 GB   |    Registered:  2 years 9 months   |    Completed:  16 times
Seeders:  3  
 
   
 
 

erzsebet.org ®

Longevity:
2 years 9 months
Posts:
47596

[Quote] 

Зверофабрика / Зона волков / Зверинец / Animal Factory
Год выпуска: 2000
Страна: США
Жанр: драма, криминал
Продолжительность: 01:30:37
Перевод: Профессиональный (многоголосый закадровый) - Первый канал
Перевод 2: Авторский (одноголосый закадровый) - Андрей Дольский
Субтитры: нет
Режиссер: Стив Бушеми / Steve Buscemi
В ролях: Уиллем Дефо / Earl Copen, Эдвард Ферлонг / Ron Decker, Дэнни Трехо / Vito, Микки Рурк / Jan the Actress, Том Арнольд / Buck Rowan, Джон Хёрд / James Decker, Дж. К. Куин / Ivan McGhee, Марк Веббер / Tank, Стив Бушеми / A.R. Hosspack-Мировая премьера: 24 января 2000-Описание: За воротами тюрьмы нормальная жизнь заканчивается. Любой несчастный вступивший в стены этого жуткого старого здания обречен жить по чудовищным, волчьим законам, от которых законопослушный человек придет в неописуемый ужас. Здесь татуированные рецидивисты режут и калечат друг друга, устраивают кровопролитные разборки, и «берут в жены» слабаков, которые не могут за себя постоять. Здесь — твоя жизнь больше уже не стоит ничего… Именно в эту тюрьму и попадает герой картины, молодой человек по имени Рон Деккер. Если бы не счастливое стечение обстоятельств, то Деккер не «протянул» бы здесь и месяца. Но Рону повезло: его взял под защиту местный «авторитет» Эрл Коупен — уважаемый «вор в законе», человек опытный и рассудительный. Возникает удивительная дружба между «прожженным» уголовником и юношей, попавшим за решетку по воле случая. И вот эта странная парочка решает совершить побег…-Огромная благодарность:
teko - видеоряд.
Haos-22 - личная запись фильма с Первого канала через видеомагнитофон и оцифровка звука с видеокассеты.
RockNIK - личная оцифровка Дольского с видеокассеты.
JUSTKANT - синхронизация переводов.-Данные переводы на трекере появляются впервые..
На русский язык фильм озвучен по заказу Первого канала.
Текст читают Владимир Антоник, Михаил Тихонов, Виктор Бохон и Светлана Старикова.-
Рейтинг

MPAA: R - Лицам до 17 лет обязательно присутствие взрослого.-Качество видео: WEB-DLRip
Формат видео: AVI -> //Сэмпл//
Видео: XviD, 720x400 (16:9), 23.976 fps, 1843 kbps
Аудио:
1 - 48 khz, AC3 Dolby Digital, 2/0 (L,R) ch, ~192 kbps [Первый канал] VHSRip-ТВ
2 - 48 khz, AC3 Dolby Digital, 2/0 (L,R) ch, ~192 kbps [Андрей Дольский] VHSRip

MediaInfo

General
Complete name : D:\Зверофабрика (Первый канал + Дольский).avi
Format : AVI
Format/Info : Audio Video Interleave
File size : 1.42 GiB
Duration : 1 h 30 min
Overall bit rate : 2 241 kb/s
Movie name : Зверофабрика / Зона волков / Зверинец / Animal Factory (Первый канал + Дольский)
Director : JUSTKANT
Writing application : VirtualDubMod 1.5.10.3 (build 2550/release)
Copyright : На русский язык фильм озвучен по заказу Первого канала
Comment : Качество звука: Первый канал - VHSRipТВ (Haos-22) и Дольский - VHSRip (RockNIK)
Video
ID : 0
Format : MPEG-4 Visual
Format profile : Advanced [email protected]
Format settings, BVOP : 1
Format settings, QPel : No
Format settings, GMC : No warppoints
Format settings, Matrix : Custom
Codec ID : XVID
Codec ID/Hint : XviD
Duration : 1 h 30 min
Bit rate : 1 843 kb/s
Width : 720 pixels
Height : 400 pixels
Display aspect ratio : 16:9
Frame rate : 25.000 FPS
Color space : YUV
Chroma subsampling : 4:2:0
Bit depth : 8 bits
Scan type : Progressive
Compression mode : Lossy
Bits/(Pixel*Frame) : 0.256
Stream size : 1.17 GiB (82%)
Writing library : XviD 73
Audio #1
ID : 1
Format : AC-3
Format/Info : Audio Coding 3
Format settings, Endianness : Big
Codec ID : 2000
Duration : 1 h 30 min
Bit rate mode : Constant
Bit rate : 192 kb/s
Channel(s) : 2 channels
Channel positions : Front: L R
Sampling rate : 48.0 kHz
Frame rate : 31.250 FPS (1536 SPF)
Bit depth : 16 bits
Compression mode : Lossy
Stream size : 124 MiB (9%)
Alignment : Split accross interleaves
Interleave, duration : 40 ms (1.00 video frame)
Interleave, preload duratio : 500 ms
Title : Первый канал: Владимир Антоник, Виктор Бохон и Светлана Старикова
Service kind : Complete Main
Audio #2
ID : 2
Format : AC-3
Format/Info : Audio Coding 3
Format settings, Endianness : Big
Codec ID : 2000
Duration : 1 h 30 min
Bit rate mode : Constant
Bit rate : 192 kb/s
Channel(s) : 2 channels
Channel positions : Front: L R
Sampling rate : 48.0 kHz
Frame rate : 31.250 FPS (1536 SPF)
Bit depth : 16 bits
Compression mode : Lossy
Stream size : 124 MiB (9%)
Alignment : Split accross interleaves
Interleave, duration : 40 ms (1.00 video frame)
Interleave, preload duratio : 500 ms
Title : Андрей Дольский (VHSRip)
Service kind : Complete Main

Скриншот c названием фильма

Скриншоты

If your ratio falls below 0.3, you will not be able to download Torrents! More about the rating.

[erzsebet.pl].t833.torrent
Torrent: Registered   [ 2017-12-02 17:17 ]

Download .torrent

Download

15 KB

Status: checked
Completed: 16 times
Size: 1.42 GB
terms.php

#1

02-Dec-2017 17:16

[Profile]  [PM] 
Display posts:    

You cannot post new topics in this forum
You cannot reply to topics in this forum
You cannot edit your posts in this forum
You cannot delete your posts in this forum
You cannot vote in polls in this forum
You cannot attach files in this forum
You can download files in this forum
User agreement
For copyright holders
Advertise on this site

Скачайте на халяву через торрент на трекере erzsebet.pl

!ATTENTION!
The site does not give electronic versions of products, and is engaged only in a collecting and cataloguing of the references sent and published at a forum by our readers. If you are the legal owner of any submitted material and do not wish that the reference to it was in our catalogue, contact us and we shall immediately remove her. Files for an exchange on tracker are given by users of a site, and the administration does not bear the responsibility for their maintenance. The request to not fill in the files protected by copyrights, and also files of the illegal maintenance!