Освободите Вилли / Free Willy (Саймон Уинсер / Simon Wincer) [1993, США, Франция, драма, приключения, семейный, BDRip] DVO (ТВЦ)

DL-List and Torrent activity
Size:  1.47 GB   |    Registered:  2 years 9 months   |    Completed:  16 times
Seeders:  3  
 
   
 
 

erzsebet.org ®

Longevity:
2 years 9 months
Posts:
47596

[Quote] 

Освободите Вилли / Free Willy
Год выпуска: 1993
Страна: США, Франция
Жанр: драма, приключения, семейный
Продолжительность: 01:51:43
Перевод: Профессиональный (двухголосый закадровый) - ТВЦ
Субтитры: нет
Режиссер: Саймон Уинсер / Simon Wincer
В ролях: Джейсон Джеймс Рихтер / Jesse, Лори Петти / Rae Lindley, Джейн Эткинсон / Annie Greenwood, Аугуст Шелленберг / Randolph Johnson, Майкл Мэдсен / Glen Greenwood, Майкл Айронсайд / Dial, Ричард Рили / Wade, Майкелти Уильямсон / Dwight Mercer, Майкл Бэколл / Perry, Даниэль Харрис / Gwenie-Мировая премьера: 16 июля 1993-Описание: Юному бродяге Джесси грозит колония для несовершеннолетних. Но его куратор дает ему последний шанс: еще раз попытаться пожить у приемных родителей Гринвудов - Глена и Энни. Тем более что эта милая молодая семейная пара очень хочет подружиться с мальчиком. А в наказание за совершенные проделки Джесси назначают наказание в аквапарке, стены которого он с дружком-хулиганом изрисовал краской. Там Джесси знакомится с китом-касаткой Вилли, и это знакомство переворачивает всю его жизнь. Чтобы получить страховку за якобы случайно погибшего кита, владельцы океанариума решают убить Вилли. Но их безупречному плану не суждено сбыться, ведь на защиту морского гиганта встает Джесси, который успел подружиться с Вилли, и делает все, чтобы спасти своего чрезвычайно умного морского друга, выпустив его на волю в открытый океан.-Огромная благодарность:
sovsem-neduhoven - BDRip 720p.
Валеutrfcvjbyuhk - личная запись фильма с телеканала ТВЦ через видеомагнитофон и оцифровка звука с видеокассеты.
JUSTKANT - синхронизация перевода.-Данный перевод на трекере появляется впервые..
Текст читают Владимир Антоник и Ольга Кузнецова.-
Рейтинг

MPAA: PG - Рекомендуется присутствие родителей.-Качество видео: BDRip
Формат видео: AVI -> //Сэмпл//
Видео: XviD, 720x304 (2.35:1), 23.976 fps, 1685 kbps
Аудио:
1 - 48 khz, AC3 Dolby Digital, 2/0 (L,R) ch, ~192 kbps [ТВЦ] VHSRip-ТВ

Дополнительно перевод ОРТ

https://cloud.mail.ru/public/MkCi/VSL61Tj3i
За дорожку RoxMarty!
Решил не добавлять в свой релиз, потому что данный перевод уже есть в других раздачах, и чтобы никто не заставлял меня делать сравнение звука по качеству!

Информация о переводе

К сожалению, есть вставки перевода ОРТ в этих пропущенных во время ТВ-записи эпизодах:
00:45:17 - 00:45:21
00:47:14 - 00:48:03
00:51:36 - 00:53:21
01:01:55 - 01:03:12
01:03:25 - 01:03:47
01:07:20 - 01:08:27
01:15:41 - 01:17:49
01:29:14 - 01:31:41

MediaInfo

General
Complete name : D:\Освободите Вилли (ТВЦ).avi
Format : AVI
Format/Info : Audio Video Interleave
File size : 1.47 GiB
Duration : 1 h 51 min
Overall bit rate : 1 886 kb/s
Movie name : Освободите Вилли / Free Willy (ТВЦ)
Director : JUSTKANT
Writing application : VirtualDubMod 1.5.10.3 (build 2550/release)
Copyright : Качество звука: VHSRipТВ (Валеutrfcvjbyuhk)
Video
ID : 0
Format : MPEG-4 Visual
Format profile : Advanced [email protected]
Format settings, BVOP : 1
Format settings, QPel : No
Format settings, GMC : No warppoints
Format settings, Matrix : Custom
Codec ID : XVID
Codec ID/Hint : XviD
Duration : 1 h 51 min
Bit rate : 1 685 kb/s
Width : 720 pixels
Height : 304 pixels
Display aspect ratio : 2.35:1
Frame rate : 23.976 (24000/1001) FPS
Color space : YUV
Chroma subsampling : 4:2:0
Bit depth : 8 bits
Scan type : Progressive
Compression mode : Lossy
Bits/(Pixel*Frame) : 0.321
Stream size : 1.31 GiB (89%)
Writing library : XviD 73
Audio
ID : 1
Format : AC-3
Format/Info : Audio Coding 3
Format settings, Endianness : Big
Codec ID : 2000
Duration : 1 h 51 min
Bit rate mode : Constant
Bit rate : 192 kb/s
Channel(s) : 2 channels
Channel positions : Front: L R
Sampling rate : 48.0 kHz
Frame rate : 31.250 FPS (1536 SPF)
Bit depth : 16 bits
Compression mode : Lossy
Stream size : 153 MiB (10%)
Alignment : Split accross interleaves
Interleave, duration : 42 ms (1.00 video frame)
Interleave, preload duratio : 500 ms
Title : ТВЦ: Владимир Антоник и Галина Исхакова
Service kind : Complete Main

Скриншот c названием фильма

Скриншоты

If your ratio falls below 0.3, you will not be able to download Torrents! More about the rating.

[erzsebet.pl].t842.torrent
Torrent: Registered   [ 2017-12-02 17:17 ]

Download .torrent

Download

15 KB

Status: checked
Completed: 16 times
Size: 1.47 GB
terms.php

#1

02-Dec-2017 17:16

[Profile]  [PM] 
Display posts:    

You cannot post new topics in this forum
You cannot reply to topics in this forum
You cannot edit your posts in this forum
You cannot delete your posts in this forum
You cannot vote in polls in this forum
You cannot attach files in this forum
You can download files in this forum
User agreement
For copyright holders
Advertise on this site

Скачайте на халяву через торрент на трекере erzsebet.pl

!ATTENTION!
The site does not give electronic versions of products, and is engaged only in a collecting and cataloguing of the references sent and published at a forum by our readers. If you are the legal owner of any submitted material and do not wish that the reference to it was in our catalogue, contact us and we shall immediately remove her. Files for an exchange on tracker are given by users of a site, and the administration does not bear the responsibility for their maintenance. The request to not fill in the files protected by copyrights, and also files of the illegal maintenance!