Мой любимый марсианин / My Favorite Martian (Дональд Питри / Donald Petrie) [1999, США, фантастика, комедия, семейный, VHSRip-AVC] [Fullscreen] Dub

DL-List and Torrent activity
Size:  2.82 GB   |    Registered:  2 years 9 months   |    Completed:  16 times
Seeders:  5  
 
   
 
 

erzsebet.org ®

Longevity:
2 years 9 months
Posts:
47596

[Quote] 

Мой любимый марсианин / My Favorite Martian [Fullscreen]- Страна: США
Жанр: фантастика, комедия, семейный
Год выпуска: 1999
Продолжительность: 01:29:43-Перевод: Профессиональный (дублированный)
Субтитры: нет-Режиссер: Дональд Питри / Donald Petrie
В ролях: Кристофер Ллойд, Джефф Дэниелс, Элизабет Хёрли, Дэрил Ханна, Уоллес Шоун, Кристин Эберсоул, Майкл Лернер, Рей Уолстон, Шелли Мэлил, Джереми Хотц...- | Релиз: -Описание: Он может уменьшать и увеличивать предметы. Он заставляет мороженное летать по комнате. Он разговаривает со своим костюмом. Он может позабыть голову в корзине для белья. Он может превратиться во что угодно. Он невыносим и неотразим. Он - мой любимый марсианин. Если он предложит вам жевательную резинку - откажитесь наотрез!-Доп. информация: Личная оцифровка VHS. Звук на кассете был с треском, поэтому заменён на звук с DVD R5.-Семпл: http://sendfile.su/1373232-Тип релиза: VHSRip-AVC
Контейнер: MKV
Видео: 696x574 (1.293) @ 742x574, 25.000 fps, AVC, ~4029 Kbps, 0.403 bits/pixel
Аудио: Русский, 48.0 KHz, AC3, 6 ch, 384 Kbps

MediaInfo

General
Unique ID : 195155775300128372390178102606031734875 (0x92D1A298FF753724BB44DF2F08EFC85B)
Complete name : My Favorite Martian 1999 [Fullscreen] VHS.mkv
Format : Matroska
Format version : Version 4 / Version 2
File size : 2.82 GiB
Duration : 1 h 29 min
Overall bit rate : 4 502 kb/s
Encoded date : UTC 2017-10-29 18:57:42
Writing application : mkvmerge v17.0.0 ('Be Ur Friend') 64-bit
Writing library : libebml v1.3.5 + libmatroska v1.4.8
Video
ID : 1
Format : AVC
Format/Info : Advanced Video Codec
Format profile : [email protected]
Format settings : CABAC / 16 Ref Frames
Format settings, CABAC : Yes
Format settings, RefFrames : 16 frames
Codec ID : V_MPEG4/ISO/AVC
Duration : 1 h 29 min
Bit rate : 4 119 kb/s
Width : 696 pixels
Height : 574 pixels
Display aspect ratio : 1.293
Frame rate mode : Constant
Frame rate : 25.000 FPS
Color space : YUV
Chroma subsampling : 4:2:0
Bit depth : 8 bits
Scan type : Progressive
Bits/(Pixel*Frame) : 0.412
Stream size : 2.58 GiB (91%)
Writing library : x264 core 152 r2851kMod ba24899
Encoding settings : cabac=1 / ref=16 / deblock=1:-3:-2 / analyse=0x3:0x133 / me=umh / subme=11 / psy=1 / fade_compensate=0.00 / psy_rd=1.00:0.00 / mixed_ref=1 / me_range=48 / chroma_me=1 / trellis=2 / 8x8dct=1 / cqm=0 / deadzone=21,11 / fast_pskip=0 / chroma_qp_offset=-2 / threads=12 / lookahead_threads=3 / sliced_threads=0 / nr=0 / decimate=1 / interlaced=0 / bluray_compat=0 / constrained_intra=0 / bframes=14 / b_pyramid=2 / b_adapt=2 / b_bias=0 / direct=3 / weightb=1 / open_gop=0 / weightp=0 / keyint=250 / keyint_min=25 / scenecut=40 / intra_refresh=0 / rc=crf / mbtree=0 / crf=19.0000 / qcomp=0.60 / qpmin=0 / qpmax=69 / qpstep=4 / ip_ratio=1.40 / pb_ratio=1.30 / aq=3:0.75
Default : Yes
Forced : No
Color range : Limited
Color primaries : BT.601 PAL
Transfer characteristics : BT.470 System B, BT.470 System G
Matrix coefficients : BT.470 System B, BT.470 System G
Audio
ID : 2
Format : AC-3
Format/Info : Audio Coding 3
Format settings, Endianness : Big
Codec ID : A_AC3
Duration : 1 h 29 min
Bit rate mode : Constant
Bit rate : 384 kb/s
Channel(s) : 6 channels
Channel positions : Front: L C R, Side: L R, LFE
Sampling rate : 48.0 kHz
Frame rate : 31.250 FPS (1536 SPF)
Bit depth : 16 bits
Compression mode : Lossy
Stream size : 246 MiB (9%)
Title : Дубляж
Language : Russian
Service kind : Complete Main
Default : Yes
Forced : No

Fullscreen vs Widescreen

Fullscreen
Widescreen

Скан обложки VHS

If your ratio falls below 0.3, you will not be able to download Torrents! More about the rating.

[erzsebet.pl].t845.torrent
Torrent: Registered   [ 2017-12-02 17:17 ]

Download .torrent

Download

15 KB

Status: checked
Completed: 16 times
Size: 2.82 GB
terms.php

#1

02-Dec-2017 17:16

[Profile]  [PM] 
Display posts:    

You cannot post new topics in this forum
You cannot reply to topics in this forum
You cannot edit your posts in this forum
You cannot delete your posts in this forum
You cannot vote in polls in this forum
You cannot attach files in this forum
You can download files in this forum
User agreement
For copyright holders
Advertise on this site

Скачайте на халяву через торрент на трекере erzsebet.pl

!ATTENTION!
The site does not give electronic versions of products, and is engaged only in a collecting and cataloguing of the references sent and published at a forum by our readers. If you are the legal owner of any submitted material and do not wish that the reference to it was in our catalogue, contact us and we shall immediately remove her. Files for an exchange on tracker are given by users of a site, and the administration does not bear the responsibility for their maintenance. The request to not fill in the files protected by copyrights, and also files of the illegal maintenance!