Кто такой Гарри Келлерман и почему он говорит обо мне ужасные вещи? / Who Is Harry Kellerman and Why Is He Saying Those Terrible Things About Me? (Улу Гросбард / Ulu Grosbard) [1971, США, драма, комедия, DVDRip-AVC] MVO (6 канал) + Sub Eng + Original

Reply to topic
DL-List and Torrent activity
Size:  1.51 GB   |    Registered:  3 years 3 months   |    Completed:  16 times

Seeder not seen: 3 years 3 months

 
   
 
 
Author Message

erzsebet.org ®

Longevity: 3 years 2 months

Posts: 47596

Post 02-Dec-2017 16:06

[Quote]

Кто такой Гарри Келлерман и почему он говорит обо мне ужасные вещи? / Who Is Harry Kellerman and Why Is He Saying Those Terrible Things About Me?
Страна: США
Жанр: драма, комедия
Год выпуска: 1971
Продолжительность: 01:48:00
Перевод: Профессиональный (многоголосый закадровый) 6 канал по заказу СТС
Субтитры: английские
Оригинальная аудиодорожка: английский отдельным файлом
Режиссер: Улу Гросбард / Ulu Grosbard
В ролях: Дастин Хоффман, Барбара Харрис, Джек Уорден, Дэвид Барнс, Гэбриел Делл, Бетти Уолкер, Роуз Грегорио, Дом ДеЛуис, Регина Бэфф, Дэвид Галеф...
Описание: Джорджи Солоуэй — успешный рок-музыкант, у которого, как он сам считает, в жизни есть всё. Однажды ему приходится заняться поисками человека по имени Гарри Келлерман, который распространяет о нём возмутительные лживые слухи. Однажды ночью, борясь с бессонницей, Джорджи, автор многочисленных песен о любви, начинает анализировать свою жизнь и с ужасом понимает, что она лишена самой этой любви и смысла. Впрочем, на следующий день поиски загадочного Гарри Келлермана продолжаются, становясь навязчивой идеей Джорджи, и он постепенно снова забывает о своих жизненных неурядицах…
Доп. информация: Перевод с раздачи rulle1. Синхронизация звука - Dreven.
Сэмпл: http://sendfile.su/1377726
Качество видео: DVDRip-AVC
Формат видео: MKV
Видео: 720x480 (16:9) @ 853x480, 23.976 fps, AVC, ~1610 Kbps, 0.194 bits/pixel
Аудио 1: Russian, 48.0 KHz, AC3, 2 ch, 192 Kbps - 6 канал
Аудио 2: English, 48.0 KHz, AC3, 2 ch, 192 Kbps отдельным файлом

MediaInfo

General
Unique ID : 234218012946759753089718271436032289306 (0xB034BF9B655DB2F79B2CFF427267AA1A)
Complete name : C:\Who Is Harry Kellerman\Who Is Harry Kellerman.mkv
Format : Matroska
Format version : Version 4 / Version 2
File size : 1.36 GiB
Duration : 1 h 48 min
Overall bit rate : 1 807 kb/s
Encoded date : UTC 2017-11-15 09:31:52
Writing application : mkvmerge v17.0.0 ('Be Ur Friend') 64-bit
Writing library : libebml v1.3.5 + libmatroska v1.4.8
Video
ID : 1
Format : AVC
Format/Info : Advanced Video Codec
Format profile : [email protected]
Format settings, CABAC : Yes
Format settings, RefFrames : 9 frames
Codec ID : V_MPEG4/ISO/AVC
Duration : 1 h 48 min
Bit rate : 1 610 kb/s
Width : 720 pixels
Height : 480 pixels
Display aspect ratio : 16:9
Frame rate mode : Constant
Frame rate : 23.976 (24000/1001) FPS
Color space : YUV
Chroma subsampling : 4:2:0
Bit depth : 8 bits
Scan type : Progressive
Bits/(Pixel*Frame) : 0.194
Stream size : 1.22 GiB (89%)
Writing library : x264 core 142 r2479 dd79a61
Encoding settings : cabac=1 / ref=9 / deblock=1:-2:-2 / analyse=0x3:0x133 / me=umh / subme=9 / psy=1 / psy_rd=1.00:0.00 / mixed_ref=1 / me_range=32 / chroma_me=1 / trellis=2 / 8x8dct=1 / cqm=0 / deadzone=21,11 / fast_pskip=0 / chroma_qp_offset=-2 / threads=3 / lookahead_threads=1 / sliced_threads=0 / nr=0 / decimate=1 / interlaced=0 / bluray_compat=0 / constrained_intra=0 / bframes=12 / b_pyramid=2 / b_adapt=2 / b_bias=0 / direct=3 / weightb=1 / open_gop=0 / weightp=2 / keyint=240 / keyint_min=24 / scenecut=40 / intra_refresh=0 / rc_lookahead=100 / rc=2pass / mbtree=1 / bitrate=1610 / ratetol=1.0 / qcomp=0.60 / qpmin=0 / qpmax=69 / qpstep=4 / cplxblur=20.0 / qblur=0.5 / ip_ratio=1.40 / aq=1:1.20
Language : English
Default : Yes
Forced : No
Color range : Limited
Color primaries : BT.601 NTSC
Transfer characteristics : BT.709
Matrix coefficients : BT.601
Audio
ID : 2
Format : AC-3
Format/Info : Audio Coding 3
Format settings, Endianness : Big
Codec ID : A_AC3
Duration : 1 h 48 min
Bit rate mode : Constant
Bit rate : 192 kb/s
Channel(s) : 2 channels
Channel positions : Front: L R
Sampling rate : 48.0 kHz
Frame rate : 31.250 FPS (1536 SPF)
Bit depth : 16 bits
Compression mode : Lossy
Stream size : 148 MiB (11%)
Title : 6 канал
Language : Russian
Service kind : Complete Main
Default : Yes
Forced : No
Text
ID : 3
Format : VobSub
Muxing mode : zlib
Codec ID : S_VOBSUB
Codec ID/Info : Picture based subtitle format used on DVDs
Duration : 1 h 44 min
Bit rate : 6 301 b/s
Count of elements : 1678
Stream size : 4.71 MiB (0%)
Language : English
Default : No
Forced : No
Menu
00:00:00.000 : :Chapter 1
00:10:59.075 : :Chapter 2
00:20:48.997 : :Chapter 3
00:28:32.627 : :Chapter 4
00:45:04.451 : :Chapter 5
00:54:01.530 : :Chapter 6
01:01:04.244 : :Chapter 7
01:11:18.691 : :Chapter 8
01:23:08.233 : :Chapter 9
01:28:56.289 : :Chapter 10
01:35:29.557 : :Chapter 11
01:45:58.310 : :Chapter 12

Скриншоты

[erzsebet.pl].t85.torrent
Torrent: Registered [ 2017-12-02 16:06 ] · DDC44422C24B2191E4FAF7D8C3C9D54EDE1695CB

Download .torrent

Download

16 KB

Status: checked
Completed: 16 times
Size: 1.51 GB
terms.php
[Profile] [PM]
Display posts:    
Reply to topic

Current time is: 05-Mar 04:34

All times are UTC ± 0



You cannot post new topics in this forum
You cannot reply to topics in this forum
You cannot edit your posts in this forum
You cannot delete your posts in this forum
You cannot vote in polls in this forum
You cannot attach files in this forum
You can download files in this forum