Пульт / Содом в Рейкьявике / Sódóma Reykjavík / Sodoma Reykjavik / Remote Control (Оускар Йоунассон / Óskar Jónasson / Oskar Jonasson) [1992, Исландия, комедия, VHSRip] AVO (Володарский)

DL-List and Torrent activity
Size:  1.43 GB   |    Registered:  2 years 9 months   |    Completed:  16 times
Seeders:  5   Leechers:  1   Show peers in full details
 
   
 
 

erzsebet.org ®

Longevity:
2 years 9 months
Posts:
47596

[Quote] 

Пульт / Sódóma Reykjavík
Страна: Исландия
Жанр: комедия
Год выпуска: 1992
Продолжительность: 01:21:49
Перевод: Авторский (одноголосый закадровый) Леонида Володарского
Субтитры: английские неотключаемые /hardsub/
Оригинальная аудиодорожка: нет
Режиссер: Оускар Йоунассон /Óskar Jónasson/
В ролях: Бьёдн Йёрюндюр Фридбьёднссон /Björn Jörundur Friðbjörnsson/, Þórarinn Eyfjörð /Þórarinn Eyfjörð/, Тораринн Оскар Тораринссон /Thorarinn Oskar Thorarinsson/, Хельга Брага Йонсдоттир /Helga Braga Jónsdóttir/, Þóra Friðriksdóttir /Þóra Friðriksdóttir/, Margrét Hugrún Gústavsdóttir /Margrét Hugrún Gústavsdóttir/, Сигюрйоун Кьяртанссон /Sigurjón Kjartansson/, ...
Описание: Однажды почтенная дама потеряла пульт от телевизора и под угрозой спустить любимых золотых рыбок сына в канализацию отправила парня на поиски. Тот послушно соглашается и, исполняя волю матери, сначала попадает к местным панкам, а потом оказывается в самом эпицентре криминальной жизни города. две песни поёт Björk
Доп. информация: оцифровал и подготовил karlll
Качество видео: VHSRip ~Сэмпл~
Формат видео: AVI
Видео: 672x512 (1.31:1), 25 fps, XviD build 73 ~2293 kbps avg, 0.27 bit/pixel
Аудио: 48 kHz, AC3 Dolby Digital, 2/0 (L,R) ch, ~192 kbps

саундтрек

MAMMA /Sigurjon Kjartansson/
Ó, BORG MÍN BORG /Björk Gudmundsdottir & KK Band/
HÓTEL HAFÖRN /Jupiters/
SLAPPAÐU AF /KK Band/
PARTÝBÆR /Ham/
KAFLAR ÚR HAFNARFJÖRÐUR-REYKJAVÍK /Sigurjon Kjartansson/
NIÐRI Í BÆ /Funkstrasse/
SÓDÓMA /Sálin hans Jóns míns/
TAKK /Björk Gudmundsdottir & Thorhallur Skulason/
KOMDU Í PARTÝ /Funkstrasse/
ANIMALIA /Ham/
MANIFESTO /Sigurjon Kjartansson/
SÓDÓMA GÓRMORRA /Sigurjon Kjartansson/

MediaInfo

Формат : AVI
Формат/Информация : Audio Video Interleave
Размер файла : 1,43 Гбайт
Продолжительность : 1 ч. 21 м.
Общий поток : 2495 Кбит/сек
Программа кодирования : VirtualDubMod 1.5.10.3 | www.virtualdub-fr.org || (build 2550/release)
Библиотека кодирования : VirtualDubMod build 2550/release
Правообладатель : Karl's Bayou Country
Видео
Идентификатор : 0
Формат : MPEG-4 Visual
Профиль формата : Advanced [email protected]
Параметр BVOP формата : 2
Параметр QPel формата : Нет
Параметр GMC формата : Без точки перехода
Параметр матрицы формата : Выборочная
Идентификатор кодека : XVID
Идентификатор кодека/Подсказка : XviD
Продолжительность : 1 ч. 21 м.
Битрейт : 2293 Кбит/сек
Ширина : 672 пикселя
Высота : 512 пикселей
Соотношение сторон : 4:3
Частота кадров : 25,000 кадров/сек
Цветовое пространство : YUV
Субдискретизация насыщенности : 4:2:0
Битовая глубина : 8 бит
Тип развёртки : Прогрессивная
Метод сжатия : С потерями
Бит/(Пиксели*Кадры) : 0.267
Размер потока : 1,31 Гбайт (92%)
Библиотека кодирования : XviD 73
Аудио
Идентификатор : 1
Формат : AC-3
Формат/Информация : Audio Coding 3
Расширение режима : CM (complete main)
Параметр Endianness формата : Big
Идентификатор кодека : 2000
Продолжительность : 1 ч. 21 м.
Вид битрейта : Постоянный
Битрейт : 192 Кбит/сек
Каналы : 2 канала
Расположение каналов : Front: L R
Частота : 48,0 КГц
Битовая глубина : 16 бит
Метод сжатия : С потерями
Размер потока : 112 Мбайт (8%)
Выравнивание : Разделение по промежуткам
Продолжительность промежутка : 40 мс. (1,00 видеокадр)
Время предзагрузки промежутка : 500 мс.
Заголовок : перевод Володарского

Скриншоты

If your ratio falls below 0.3, you will not be able to download Torrents! More about the rating.

[erzsebet.pl].t854.torrent
Torrent: Registered   [ 2017-12-02 17:17 ]

Download .torrent

Download

15 KB

Status: checked
Completed: 16 times
Size: 1.43 GB
terms.php

#1

02-Dec-2017 17:16

[Profile]  [PM] 
Display posts:    

You cannot post new topics in this forum
You cannot reply to topics in this forum
You cannot edit your posts in this forum
You cannot delete your posts in this forum
You cannot vote in polls in this forum
You cannot attach files in this forum
You can download files in this forum
User agreement
For copyright holders
Advertise on this site

Скачайте на халяву через торрент на трекере erzsebet.pl

!ATTENTION!
The site does not give electronic versions of products, and is engaged only in a collecting and cataloguing of the references sent and published at a forum by our readers. If you are the legal owner of any submitted material and do not wish that the reference to it was in our catalogue, contact us and we shall immediately remove her. Files for an exchange on tracker are given by users of a site, and the administration does not bear the responsibility for their maintenance. The request to not fill in the files protected by copyrights, and also files of the illegal maintenance!