Солдаты Ада / Операция Мозаика / The Mosaic Project / Infernal Soldiers (Джон Сьёгрен / John Sjogren) [1994, США, Фантастика, Боевик, VHSRip] AVO (Антон Алексеев) + Sub Dut

DL-List and Torrent activity
Size:  1.36 GB   |    Registered:  2 years 9 months   |    Completed:  16 times
Seeders:  3   Leechers:  1   Show peers in full details
 
   
 
 

erzsebet.org ®

Longevity:
2 years 9 months
Posts:
47596

[Quote] 

Солдаты Ада / Операция Мозаика / The Mosaic Project / Infernal Soldiers
Страна: США
Жанр: Фантастика, Боевик
Год выпуска: 1994
Продолжительность: 01:24:50
Перевод: Авторский (одноголосый закадровый) Антон Алексеев
Субтитры: нидерландские
Режиссер: Джон Сьёгрен / John Sjogren
В ролях: William Buzick III, Коллин Коффи, Нэйл Дэлама, Джино Денти, Шон П. Донахью, Джо Эстевес, Николас Флеминг, Эдвин Ларсон, Мишель Лорин, Чак Лоч, Роберт З’Дар
Описание: Двое недалеких парней, работающих мусорщиками, случайно находят кассету с микропроцессорами, из-за которой ранее поубивали кучу народа. Недолго думая, они звонят по телефону, указанному на кассете, и им дают подробные инструкции относительно того, куда и когда приехать. По прибытии им, не задавая лишних вопросов, вживляют эти самые микропроцессоры. Они превращаются в суперагентов, владеющих всеми необходимыми знаниями, включая иностранные языки и боевые искусства. Проверив их способности, новые хозяева поручают им первое задание. После ковыряния в отбросах ребятам очень понравилась новая работа, тем более что работать им довелось с очаровательными девочками. Беда их только в том, что их шеф из ЦРУ вскоре узнает, что они не те, за кого себя выдали...
Доп. информация: Оцифровка VHS (личный архив) и получение VHSRip lexx256
Релиз взят по наводке lexx256 из nnm-клаб
Сэмпл: https://yadi.sk/i/Dkua1qU43PBnFK
Качество видео: VHSRip
Формат видео: MKV
Видео: MPEG4 Video (H264) 682x548 25fps ~2115 kbps
Аудио: AC3, 2 ch, 192 kbps
Формат субтитров: hardsub (неотключаемые)

MediaInfo

Солдаты Ада - Операция Мозаика - 1994 (VHSRip By lexx256).mkv
Format : Matroska
Format version : Version 4 / Version 2
File size : 1.36 GiB
Duration : 1 h 24 min
Overall bit rate : 2 296 kb/s
Writing application : XviD4PSP 7.0.414 DAILY
Writing library : Lavf57.71.100
ErrorDetectionType : Per level 1
ENCODING_INFO : MPEG > MKV / MPEG2 > X264 ABR 2115kbps SHQ / MP2 > AC3 CBR 192kbps
Video
ID : 1
Format : AVC
Format/Info : Advanced Video Codec
Format profile : [email protected]
Format settings, CABAC : Yes
Format settings, ReFrames : 7 frames
Codec ID : V_MPEG4/ISO/AVC
Duration : 1 h 24 min
Bit rate : 2 115 kb/s
Width : 682 pixels
Height : 548 pixels
Display aspect ratio : 4:3
Frame rate mode : Constant
Frame rate : 25.000 FPS
Color space : YUV
Chroma subsampling : 4:2:0
Bit depth : 8 bits
Scan type : Progressive
Bits/(Pixel*Frame) : 0.226
Stream size : 1.22 GiB (90%)
Writing library : x264 core 152 r2851M ba24899
Encoding settings : cabac=1 / ref=7 / deblock=1:0:0 / analyse=0x3:0x133 / me=umh / subme=9 / psy=1 / psy_rd=1.05:0.10 / mixed_ref=1 / me_range=24 / chroma_me=1 / trellis=2 / 8x8dct=1 / cqm=0 / deadzone=21,11 / fast_pskip=0 / chroma_qp_offset=-3 / threads=5 / lookahead_threads=1 / sliced_threads=0 / nr=0 / decimate=1 / interlaced=0 / bluray_compat=0 / constrained_intra=0 / bframes=7 / b_pyramid=2 / b_adapt=2 / b_bias=0 / direct=3 / weightb=1 / open_gop=0 / weightp=2 / keyint=250 / keyint_min=25 / scenecut=40 / intra_refresh=0 / rc_lookahead=60 / rc=abr / mbtree=1 / bitrate=2115 / ratetol=1.0 / qcomp=0.70 / qpmin=3 / qpmax=69 / qpstep=4 / ip_ratio=1.40 / aq=2:1.00
Default : Yes
Forced : No
Color range : Limited
Color primaries : BT.601 PAL
Transfer characteristics : BT.470 System B, BT.470 System G
Matrix coefficients : BT.601
DURATION : 01:24:49.680000000
Audio
ID : 2
Format : AC-3
Format/Info : Audio Coding 3
Format settings, Endianness : Big
Codec ID : A_AC3
Duration : 1 h 24 min
Bit rate mode : Constant
Bit rate : 192 kb/s
Channel(s) : 2 channels
Channel positions : Front: L R
Sampling rate : 48.0 kHz
Frame rate : 31.250 FPS (1536 spf)
Bit depth : 16 bits
Compression mode : Lossy
Stream size : 117 MiB (8%)
Service kind : Complete Main
Default : Yes
Forced : No
DURATION : 01:24:50.432000000

Скриншоты


If your ratio falls below 0.3, you will not be able to download Torrents! More about the rating.

[erzsebet.pl].t857.torrent
Torrent: Registered   [ 2017-12-02 17:17 ]

Download .torrent

Download

14 KB

Status: checked
Completed: 16 times
Size: 1.36 GB
terms.php

#1

02-Dec-2017 17:16

[Profile]  [PM] 
Display posts:    

You cannot post new topics in this forum
You cannot reply to topics in this forum
You cannot edit your posts in this forum
You cannot delete your posts in this forum
You cannot vote in polls in this forum
You cannot attach files in this forum
You can download files in this forum
User agreement
For copyright holders
Advertise on this site

Скачайте на халяву через торрент на трекере erzsebet.pl

!ATTENTION!
The site does not give electronic versions of products, and is engaged only in a collecting and cataloguing of the references sent and published at a forum by our readers. If you are the legal owner of any submitted material and do not wish that the reference to it was in our catalogue, contact us and we shall immediately remove her. Files for an exchange on tracker are given by users of a site, and the administration does not bear the responsibility for their maintenance. The request to not fill in the files protected by copyrights, and also files of the illegal maintenance!