Фрэнки и Джонни / Frankie and Johnny (Гэрри Маршалл / Garry Marshall) [1991, США, комедия, мелодрама, драма, VHSRip] [Full Screen] AVO (Алексей Михалев)

DL-List and Torrent activity
Size:  1.46 GB   |    Registered:  2 years 9 months   |    Completed:  16 times
Seeders:  4   Leechers:  1   Show peers in full details
 
   
 
 

erzsebet.org ®

Longevity:
2 years 9 months
Posts:
47596

[Quote] 

Фрэнки и Джонни / Frankie and Johnny
[Full Screen]
«You never choose love. Love chooses you»
Страна: США
Жанр: комедия, мелодрама, драма
Год выпуска: 1991
Продолжительность: 01:57:58
Перевод: Авторский (одноголосый закадровый) Алексей Михалев
Субтитры: нет
Режиссер: Гэрри Маршалл / Garry Marshall
В ролях: Аль Пачино, Мишель Пфайффер, Гектор Элизондо, Натан Лейн, Кейт Неллиган, Джейн Моррис, Грег Льюис, Эл Фэнн, Эли Китс, Фернандо Лопез
Описание: Он - повар, отсидевший в тюрьме. Она - официантка в нью-йоркской забегаловке. Аль Пачино и Мишель Пфайффер великолепны в этой тонкой, изящной, немного театральной истории любви простых людей. Остроумные, отточенные диалоги, отличные актеры второго плана - все это делает картину подлинным достижением в своем жанре. Поставлен по театральной пьесе Терренса МакНолли "Фрэнки и Джонни в лунном свете". (Иванов М.)
Доп. информация: Оцифровка VHS (личный архив) и получение VHSRip alenavova
Эксклюзив для erzsebet.org. При размещении данного релиза на других сайтах ссылка на автора alenavova обязательна.
Релиз
Сэмпл: https://yadi.sk/i/OCsZSgbq3Hws3i
Качество видео: VHSRip
Формат видео: AVI
Видео: 704x512 (1.38:1), 25 fps, XviD build 73 ~1574 kbps avg, 0.17 bit/pixel
Аудио: 48 kHz, AC3 Dolby Digital, 2/0 (L,R) ch, ~192 kbps

MediaInfo

Фрэнки и Джонни - Frankie and Johnny [by alenavova].avi
Format : AVI
Format/Info : Audio Video Interleave
File size : 1.46 GiB
Duration : 1 h 57 min
Overall bit rate : 1 777 kb/s
Movie name : Фрэнки и Джонни - Frankie and Johnny [by alenavova]
Director : by alenavova
Writing application : VirtualDubMod 1.5.10.3 | www.virtualdub-fr.org || (build 2550/release)
Copyright : Edich2
Comment : erzsebet.org
Video
ID : 0
Format : MPEG-4 Visual
Format profile : Advanced [email protected]
Format settings, BVOP : 2
Format settings, QPel : No
Format settings, GMC : No warppoints
Format settings, Matrix : Custom
Codec ID : XVID
Codec ID/Hint : XviD
Duration : 1 h 57 min
Bit rate : 1 575 kb/s
Width : 704 pixels
Height : 512 pixels
Display aspect ratio : 1.375
Frame rate : 25.000 FPS
Color space : YUV
Chroma subsampling : 4:2:0
Bit depth : 8 bits
Scan type : Progressive
Compression mode : Lossy
Bits/(Pixel*Frame) : 0.175
Stream size : 1.30 GiB (89%)
Writing library : XviD 73
Audio
ID : 1
Format : AC-3
Format/Info : Audio Coding 3
Format settings, Endianness : Big
Codec ID : 2000
Duration : 1 h 57 min
Bit rate mode : Constant
Bit rate : 192 kb/s
Channel(s) : 2 channels
Channel positions : Front: L R
Sampling rate : 48.0 kHz
Frame rate : 31.250 FPS (1536 spf)
Bit depth : 16 bits
Compression mode : Lossy
Stream size : 162 MiB (11%)
Alignment : Split accross interleaves
Interleave, duration : 40 ms (1.00 video frame)
Interleave, preload duratio : 500 ms
Service kind : Complete Main

Скриншоты


If your ratio falls below 0.3, you will not be able to download Torrents! More about the rating.

[erzsebet.pl].t860.torrent
Torrent: Registered   [ 2017-12-02 17:17 ]

Download .torrent

Download

15 KB

Status: checked
Completed: 16 times
Size: 1.46 GB
terms.php

#1

02-Dec-2017 17:16

[Profile]  [PM] 
Display posts:    

You cannot post new topics in this forum
You cannot reply to topics in this forum
You cannot edit your posts in this forum
You cannot delete your posts in this forum
You cannot vote in polls in this forum
You cannot attach files in this forum
You can download files in this forum
User agreement
For copyright holders
Advertise on this site

Скачайте на халяву через торрент на трекере erzsebet.pl

!ATTENTION!
The site does not give electronic versions of products, and is engaged only in a collecting and cataloguing of the references sent and published at a forum by our readers. If you are the legal owner of any submitted material and do not wish that the reference to it was in our catalogue, contact us and we shall immediately remove her. Files for an exchange on tracker are given by users of a site, and the administration does not bear the responsibility for their maintenance. The request to not fill in the files protected by copyrights, and also files of the illegal maintenance!