Двадцать баксов / Приключения двадцатидолларовой бумажки / Twenty Bucks (Кева Розенфельд / Keva Rosenfeld) [1993, США, Трагикомедия, DVDRip-AVC] AVO (Визгунов) + AVO (Карцев) + AVO (Дохалов) + Sub Eng

DL-List and Torrent activity
Size:  747 MB   |    Registered:  2 years 9 months   |    Completed:  16 times
Seeders:  3  
 
   
 
 

erzsebet.org ®

Longevity:
2 years 9 months
Posts:
47596

[Quote] 

Двадцать баксов / Двадцать долларов / Twenty Bucks
Страна: США
Жанр: Трагикомедия
Год выпуска: 1993
Продолжительность: 1:31:04
Перевод: Авторский (одноголосый закадровый) Визгунов
Перевод 2: Авторский (одноголосый закадровый) Карцев
Перевод 3: Авторский (одноголосый закадровый) Дохалов
Субтитры: английские
Режиссер: Кева Розенфельд / Keva Rosenfeld
В ролях: Линда Хант, Брендан Фрейзер, Элизабет Шу, Стив Бушеми, Кристофер Ллойд, Сполдинг Грей, Дэвид Раш, Джордж Морфоген, Сэм Сорбо, Бабба Бэйкер
Описание: Приключения в Нью-Йорке купюры в 20 долларов начинаются, когда ее случайно роняют на улице. И 20 баксов начинают путешествовать по городу, перелетая от одного владельца к другому, переходя из одного кошелька в другой, становясь то сдачей, то последней бумажкой в кармане рубашки на остывшем трупе. Каждый раз, когда она попадает к новому владельцу разыгрывается маленькая история, и 20-долларовая банкнота почти «магически» связывает в своей бесконечной одиссее маленькие истории самых разных людей.
Доп. информация: исходник: http://erzsebet.org/forum/viewtopic.php?t=1025661
Сэмпл: https://www.sendspace.com/file/wj7giv
Качество видео: DVDRip
Формат видео: MKV
Видео: 720х384, 1,85:1, 23.976 fps, AVC ~1 021 kbps avg, 0.154/pixel
Аудио: 44.1 kHz, AAC, 2/0 (L,R) ch, ~40 kbps (Визгунов)
44.1 kHz, AAC, 2/0 (L,R) ch, ~40 kbps (Карцев)
44.1 kHz, AAC, 2/0 (L,R) ch, ~40 kbps (Дохалов)

MediaInfo

Двадцать баксов (Twenty Bucks) DVDrip.1993.sub.перевод 1.Визгунов 2.Карцев 3.Дохалов.mkv
Формат : Matroska
Версия формата : Version 4 / Version 2
Размер файла : 747 Мбайт
Продолжительность : 1 ч. 31 м.
Общий поток : 1146 Кбит/сек
Дата кодирования : UTC 2017-10-27 14:09:00
Программа кодирования : mkvmerge v16.0.0 ('Protest') 64-bit
Библиотека кодирования : libebml v1.3.5 + libmatroska v1.4.8
Видео
Идентификатор : 1
Формат : AVC
Формат/Информация : Advanced Video Codec
Профиль формата : [email protected]
Параметр CABAC формата : Да
Параметр ReFrames формата : 16 кадров
Идентификатор кодека : V_MPEG4/ISO/AVC
Продолжительность : 1 ч. 31 м.
Битрейт : 1021 Кбит/сек
Ширина : 720 пикселей
Высота : 384 пикселя
Соотношение сторон : 1,85:1
Режим частоты кадров : Постоянный
Частота кадров : 23,976 (24000/1001) кадра/сек
Цветовое пространство : YUV
Субдискретизация насыщенности : 4:2:0
Битовая глубина : 8 бит
Тип развёртки : Прогрессивная
Бит/(Пиксели*Кадры) : 0.154
Размер потока : 665 Мбайт (89%)
Библиотека кодирования : x264 core 148 r2744 b97ae06
Настройки программы : cabac=1 / ref=16 / deblock=1:-3:-3 / analyse=0x3:0x133 / me=umh / subme=10 / psy=1 / psy_rd=1.05:0.10 / mixed_ref=1 / me_range=32 / chroma_me=1 / trellis=2 / 8x8dct=1 / cqm=0 / deadzone=21,11 / fast_pskip=0 / chroma_qp_offset=-3 / threads=12 / lookahead_threads=3 / sliced_threads=0 / nr=0 / decimate=0 / interlaced=0 / bluray_compat=0 / constrained_intra=0 / bframes=14 / b_pyramid=2 / b_adapt=2 / b_bias=0 / direct=3 / weightb=1 / open_gop=0 / weightp=2 / keyint=240 / keyint_min=23 / scenecut=40 / intra_refresh=0 / rc_lookahead=60 / rc=2pass / mbtree=1 / bitrate=1021 / ratetol=1.0 / qcomp=0.80 / qpmin=0 / qpmax=69 / qpstep=4 / cplxblur=20.0 / qblur=0.5 / vbv_maxrate=62500 / vbv_bufsize=78125 / nal_hrd=none / filler=0 / ip_ratio=1.40 / aq=1:1.00
Default : Да
Forced : Нет
Аудио #1
Идентификатор : 2
Формат : AAC
Формат/Информация : Advanced Audio Codec
Профиль формата : HE-AAC / LC
Идентификатор кодека : A_AAC
Продолжительность : 1 ч. 31 м.
Битрейт : 38,1 Кбит/сек
Каналы : 2 канала
Расположение каналов : Front: L R
Частота : 44,1 КГц / 22,05 КГц
Частота кадров : 21,533 кадра/сек (1024 spf)
Метод сжатия : С потерями
Задержка видео : 200 мс.
Размер потока : 24,8 Мбайт (3%)
Заголовок : Визгунов
Язык : Russian
Default : Да
Forced : Нет
Аудио #2
Идентификатор : 3
Формат : AAC
Формат/Информация : Advanced Audio Codec
Профиль формата : HE-AAC / LC
Идентификатор кодека : A_AAC
Продолжительность : 1 ч. 31 м.
Битрейт : 43,2 Кбит/сек
Каналы : 2 канала
Расположение каналов : Front: L R
Частота : 44,1 КГц / 22,05 КГц
Частота кадров : 21,533 кадра/сек (1024 spf)
Метод сжатия : С потерями
Задержка видео : 200 мс.
Размер потока : 28,1 Мбайт (4%)
Заголовок : Карцев
Язык : Russian
Default : Нет
Forced : Нет
Аудио #3
Идентификатор : 4
Формат : AAC
Формат/Информация : Advanced Audio Codec
Профиль формата : HE-AAC / LC
Идентификатор кодека : A_AAC
Продолжительность : 1 ч. 31 м.
Битрейт : 41,6 Кбит/сек
Каналы : 2 канала
Расположение каналов : Front: L R
Частота : 44,1 КГц / 22,05 КГц
Частота кадров : 21,533 кадра/сек (1024 spf)
Метод сжатия : С потерями
Задержка видео : 200 мс.
Размер потока : 27,1 Мбайт (4%)
Заголовок : Дохалов
Язык : Russian
Default : Нет
Forced : Нет
Текст
Идентификатор : 5
Формат : UTF-8
Идентификатор кодека : S_TEXT/UTF8
Идентификатор кодека/Информация : UTF-8 Plain Text
Продолжительность : 1 ч. 29 м.
Битрейт : 70 бит/сек
Count of elements : 1655
Размер потока : 46,3 Кбайт (0%)
Язык : English
Default : Нет
Forced : Нет
Меню
00:00:00.000 : en:Chapter 01
00:06:37.697 : en:Chapter 02
00:12:22.508 : en:Chapter 03
00:22:24.409 : en:Chapter 04
00:29:10.381 : en:Chapter 05
00:38:02.280 : en:Chapter 06
00:49:35.739 : en:Chapter 07
00:54:42.545 : en:Chapter 08
01:01:23.312 : en:Chapter 09
01:08:31.407 : en:Chapter 10
01:14:21.290 : en:Chapter 11
01:23:23.164 : en:Chapter 12
01:30:57.118 : en:Chapter 13
Внимание! Перезалил торент-файл, поставил на раздачу более качественный видеофайл. Так же добавлены английские субтитры. Пожалуйста, качайте раздачу заново.

If your ratio falls below 0.3, you will not be able to download Torrents! More about the rating.

[erzsebet.pl].t862.torrent
Torrent: Registered   [ 2017-12-02 17:17 ]

Download .torrent

Download

15 KB

Status: checked
Completed: 16 times
Size: 747 MB
terms.php

#1

02-Dec-2017 17:16

[Profile]  [PM] 
Display posts:    

You cannot post new topics in this forum
You cannot reply to topics in this forum
You cannot edit your posts in this forum
You cannot delete your posts in this forum
You cannot vote in polls in this forum
You cannot attach files in this forum
You can download files in this forum
User agreement
For copyright holders
Advertise on this site

Скачайте на халяву через торрент на трекере erzsebet.pl

!ATTENTION!
The site does not give electronic versions of products, and is engaged only in a collecting and cataloguing of the references sent and published at a forum by our readers. If you are the legal owner of any submitted material and do not wish that the reference to it was in our catalogue, contact us and we shall immediately remove her. Files for an exchange on tracker are given by users of a site, and the administration does not bear the responsibility for their maintenance. The request to not fill in the files protected by copyrights, and also files of the illegal maintenance!