3000 миль до Грейслэнда / 3000 Miles to Graceland (Дэмиен Лихтенштайн / Demian Lichtenstein) [2001, США, боевик, VHSRip-AVC] [Fullscreen] DVO (Премьер Синема)

DL-List and Torrent activity
Size:  2.55 GB   |    Registered:  2 years 9 months   |    Completed:  16 times
Seeders:  3  
 
   
 
 

erzsebet.org ®

Longevity:
2 years 9 months
Posts:
47596

[Quote] 

3000 миль до Грейслэнда / 3000 Miles to Graceland / Fullscreen
Страна: США
Жанр: боевик
Год выпуска: 2001
Продолжительность: 01:54:24
Перевод: Профессиональный (двухголосый закадровый) Премьер Синема
Субтитры: нет
Оригинальная аудиодорожка: нет
Режиссер: Дэмиен Лихтенштайн / Demian Lichtenstein
В ролях: Курт Рассел, Кевин Костнер, Кортни Кокс, Кристиан Слэйтер, Кевин Поллак, Дэвид Аркетт, Джон Ловиц, Хоуи Лонг, Томас Хейден Чёрч, Боким Вудбайн, Айс-Ти, Дэвид Кэй, Луис Ломбарди, Шон Майкл Ховард, Джанни Руссо, Дэмиен Лихтенштайн, Келли Карлсон...
Описание: Майкл только что вышел из тюрьмы, но долго сидеть без работы ему не придется — его тут же подбирает на «большое дело» его знакомый Мерфи. План его прост и одновременно нагл — пробравшись на слет подражателей Элвиса Пресли под видом его имитаторов, ограбить одно из самых больших казино в Лас Вегасе.
Все проходит довольно гладко, однако, как водится, проблемы начинаются, когда герои начинают делить награбленное. В четко очерченный круг исполнителей неожиданно влезает одинокая мать с сыном, с которыми Майкл познакомился еще до налета, а на закуску выясняется, что Мерфи вообще-то не намерен делиться ни с кем, и своих бывших соратников он устраняет весьма традиционным способом — пуля в лоб и все дела.
Награды и номинации:
Золотая малина, 2002 год
Номинации:
Худший фильм
Худшая мужская роль (Кевин Костнер)
Худшая женская роль второго плана (Кортни Кокс)
Худший сценарий
Худшая экранная пара — «Курт Рассел и Кевин Костнер или Курт Рассел и Кортни Кокс»
Доп. информация:
Оцифровка лицензионной VHS из собственной коллекции.
Fullscreen!
Hi-Fi!

Сэмпл: http://sendfile.su/1372316
Качество видео: VHSRip-AVC
Формат видео: MP4
Видео: AVC, 720х576, 5:4, 25,000 кадров/сек, 3000 Кбит/сек
Аудио: AAC, 64,0 КГц, 192 Кбит/сек, 2.0 Hi-Fi

MediaInfo

General
Complete name : K:\torrents\3000 Miles to Graceland\3000 Miles to Graceland.mp4
Format : MPEG-4
Format profile : Base Media
Codec ID : isom (isom/iso2/avc1/mp41)
File size : 2.55 GiB
Duration : 1 h 54 min
Overall bit rate : 3 196 kb/s
Writing application : Lavf57.25.100
Video
ID : 1
Format : AVC
Format/Info : Advanced Video Codec
Format profile : [email protected]
Format settings : 1 Ref Frames
Format settings, CABAC : No
Format settings, RefFrames : 1 frame
Format settings, GOP : M=1, N=50
Codec ID : avc1
Codec ID/Info : Advanced Video Coding
Duration : 1 h 54 min
Bit rate : 3 000 kb/s
Width : 720 pixels
Height : 576 pixels
Display aspect ratio : 5:4
Frame rate mode : Constant
Frame rate : 25.000 FPS
Standard : PAL
Color space : YUV
Chroma subsampling : 4:2:0
Bit depth : 8 bits
Scan type : Progressive
Bits/(Pixel*Frame) : 0.289
Stream size : 2.40 GiB (94%)
Audio
ID : 2
Format : AAC
Format/Info : Advanced Audio Codec
Format profile : LTP
Codec ID : mp4a-40-4
Duration : 1 h 54 min
Bit rate mode : Constant
Bit rate : 192 kb/s
Channel(s) : 2 channels
Channel(s)_Original : 3 channels
Channel positions : Front: L C R
Sampling rate : 64.0 kHz
Frame rate : 62.500 FPS (1024 SPF)
Compression mode : Lossy
Stream size : 155 MiB (6%)
Default : Yes
Alternate group : 1

Скриншот c названием фильма

If your ratio falls below 0.3, you will not be able to download Torrents! More about the rating.

[erzsebet.pl].t884.torrent
Torrent: Registered   [ 2017-12-02 17:26 ]

Download .torrent

Download

13 KB

Status: checked
Completed: 16 times
Size: 2.55 GB
terms.php

#1

02-Dec-2017 17:26

[Profile]  [PM] 
Display posts:    

You cannot post new topics in this forum
You cannot reply to topics in this forum
You cannot edit your posts in this forum
You cannot delete your posts in this forum
You cannot vote in polls in this forum
You cannot attach files in this forum
You can download files in this forum
User agreement
For copyright holders
Advertise on this site

Скачайте на халяву через торрент на трекере erzsebet.pl

!ATTENTION!
The site does not give electronic versions of products, and is engaged only in a collecting and cataloguing of the references sent and published at a forum by our readers. If you are the legal owner of any submitted material and do not wish that the reference to it was in our catalogue, contact us and we shall immediately remove her. Files for an exchange on tracker are given by users of a site, and the administration does not bear the responsibility for their maintenance. The request to not fill in the files protected by copyrights, and also files of the illegal maintenance!