Тот самый Мюнхгаузен (Марк Захаров) [1979, комедия, DVDRip]

DL-List and Torrent activity
Size:  2.19 GB   |    Registered:  4 months 23 days   |    Completed:  186 times
Seeders:  1  
 
   
 
 

erzsebet ®

Longevity:
9 years 7 months
Posts:
575289
Location:
Венгрия

[Quote] 

Тот самый Мюнхгаузен
Год выпуска: 1979
Жанр: комедия
Продолжительность: 02:14:07.319 (201183 frames)
Субтитры: нет
Режиссер: Марк Захаров
В ролях: Олег Янковский, Инна Чурикова, Елена Коренева, Игорь Кваша, Александр Абдулов, Леонид Ярмольник, Юрий Катин-Ярцев, Владимир Долинский, Леонид Броневой, Семен Фарада
Описание: Комическая фантазия о жизни, любви и смерти знаменитого барона Мюнхгаузена, жившего в XVIII веке и ставшего героем многих веселых книг и преданий, опирается на персонажей и эпизоды знаменитого романа Р. Распе, но по сути является самостоятельным произведением. «Мыслящий человек просто обязан время от времени поднимать себя за волосы» — похоже, это и удается авторам картины. Барон хочет жениться на любимой им Марте, но церковь отказывается обвенчать их, так как имеется живая жена, «усмирявшая его 20 лет». Уставшая Марта хочет, чтобы барон стал таким, как все, но барон этого не хочет, да и не может. Герцог разрешит брак только в том случае, если барон письменно подтвердит, что все его истории лживы, а он сам — обыкновенный человек.
Качество: DVDRip
Формат: AVI
Видео кодек: XviD
Аудио кодек: АС3
Видео: 720x544 (1.32:1), 25 fps, XviD build 65 ~1879 kbps avg, 0.19 bit/pixel
Аудио: 48 kHz, AC3 Dolby Digital, 3/2 (L,C,R,l,r) + LFE ch, ~448.00 kbps avg

Медиаинфо

General
Complete name : E:\004 Мои раздачи\Тот самый Мюнхгаусен 2,18\tot_samyi_munhgausen_2.18_by_bm11.avi
Format : AVI
Format/Info : Audio Video Interleave
Format profile : OpenDML
File size : 2.19 GiB
Duration : 2h 14mn
Overall bit rate : 2 334 Kbps
Director : bm11
Writing application : VirtualDubMod 1.5.10.2 (build 2540/release)
Video
ID : 0
Format : MPEG-4 Visual
Format profile : Advanced [email protected]
Format settings, BVOP : 2
Format settings, QPel : No
Format settings, GMC : No warppoints
Format settings, Matrix : Custom
Codec ID : XVID
Codec ID/Hint : XviD
Duration : 2h 14mn
Bit rate : 1 874 Kbps
Width : 720 pixels
Height : 544 pixels
Display aspect ratio : 4:3
Frame rate : 25.000 fps
Color space : YUV
Chroma subsampling : 4:2:0
Bit depth : 8 bits
Scan type : Progressive
Compression mode : Lossy
Bits/(Pixel*Frame) : 0.191
Stream size : 1.76 GiB (80%)
Writing library : XviD 65
Audio
ID : 1
Format : AC-3
Format/Info : Audio Coding 3
Mode extension : CM (complete main)
Format settings, Endianness : Big
Codec ID : 2000
Duration : 2h 14mn
Bit rate mode : Constant
Bit rate : 448 Kbps
Channel(s) : 6 channels
Channel positions : Front: L C R, Side: L R, LFE
Sampling rate : 48.0 KHz
Frame rate : 31.250 fps (1536 spf)
Compression mode : Lossy
Stream size : 430 MiB (19%)
Alignment : Split accross interleaves
Interleave, duration : 40 ms (1.00 video frame)
Interleave, preload duratio : 500 ms

If your ratio falls below 0.3, you will not be able to download Torrents! More about the rating.

[erzsebet.pl].t88555.torrent
Torrent: Registered   [ 2020-03-18 23:44 ]

Download .torrent

Download

11 KB

Status: checked
Completed: 186 times
Size: 2.19 GB
terms.php

#1

18-Mar-2020 23:43

[Profile]  [PM] 
Display posts:    

You cannot post new topics in this forum
You cannot reply to topics in this forum
You cannot edit your posts in this forum
You cannot delete your posts in this forum
You cannot vote in polls in this forum
You cannot attach files in this forum
You can download files in this forum
User agreement
For copyright holders
Advertise on this site

Скачайте на халяву через торрент на трекере erzsebet.pl

!ATTENTION!
The site does not give electronic versions of products, and is engaged only in a collecting and cataloguing of the references sent and published at a forum by our readers. If you are the legal owner of any submitted material and do not wish that the reference to it was in our catalogue, contact us and we shall immediately remove her. Files for an exchange on tracker are given by users of a site, and the administration does not bear the responsibility for their maintenance. The request to not fill in the files protected by copyrights, and also files of the illegal maintenance!