Пираты Карибского моря: Проклятие Чёрной жемчужины / Pirates of the Caribbean: The Curse of the Black Pearl (Гор Вербински / Gore Verbinski) [2003, США, фэнтези, боевик, приключения, WEB-DLRip] [Open Matte] MVO (СТС)

DL-List and Torrent activity
Size:  1.46 GB   |    Registered:  2 years 9 months   |    Completed:  16 times
Seeders:  13   Leechers:  2   Show peers in full details
 
   
 
 

erzsebet.org ®

Longevity:
2 years 9 months
Posts:
47596

[Quote] 

Пираты Карибского моря: Проклятие Чёрной жемчужины / Pirates of the Caribbean: The Curse of the Black Pearl / Open Matte
Год выпуска: 2003
Страна: США
Жанр: фэнтези, боевик, приключения
Продолжительность: 02:23:15
Перевод: Профессиональный (многоголосый закадровый) - СТС
Субтитры: нет
Режиссер: Гор Вербински / Gore Verbinski
В ролях: Джонни Депп / Jack Sparrow, Джеффри Раш / Barbossa, Орландо Блум / Will Turner, Кира Найтли / Elizabeth Swann, Джек Девенпорт / Norrington, Кевин МакНэлли / Joshamee Gibbs, Джонатан Прайс / Governor Weatherby Swann, Ли Аренберг / Pintel, Макензи Крук / Ragetti, Дэвид Бэйли / Cotton-Мировая премьера: 28 июня 2003-Описание: Карибское море, 17 век. Однажды ночью к острову Порт-Роял пристает корабль-призрак "Черная жемчужина" во главе с капитаном Барбоссой. По его приказу команда похищает прекрасную дочь губернатора Элизабет Свонн. Ведь именно ей принадлежит таинственный золотой медальон, способный снять с Барбоссы и его корсаров вековое проклятье, превратившее их в живых мертвецов. Друг детства Элизабет, молодой кузнец Уилл Тернер, и настоящий владелец "Черной жемчужины" капитан Джек Спэрроу отправляются в погоню за пиратами в надежде освободить девушку из плена...-Огромная благодарность:
dalemake - видеоряд.
bora86bora - личная запись фильма с телеканала СТС через видеомагнитофон и оцифровка звука с видеокассеты.
JUSTKANT - синхронизация перевода.-Данный перевод на трекере появляется впервые.-На русский язык фильм озвучен по заказу СТС.
Текст читают Андрей Симанов, Андрей Бархударов, Александр Груздев и Ольга Сирина.-
Рейтинг

MPAA: PG-13 - Детям до 13-ти лет просмотр не желателен.-Качество видео: WEB-DLRip
Формат видео: AVI -> //Сэмпл//
Видео: XviD, 688x384 (16:9), 23.976 fps, 1258 kbps
Аудио:
1 - 48 khz, AC3 Dolby Digital, 2/0 (L,R) ch, ~192 kbps [СТС] VHSRip-ТВ

MediaInfo

General
Complete name : D:\Пираты Карибского моря 1 - Проклятие Чёрной жемчужины (СТС).avi
Format : AVI
Format/Info : Audio Video Interleave
File size : 1.46 GiB
Duration : 2 h 23 min
Overall bit rate : 1 459 kb/s
Movie name : Пираты Карибского моря 1: Проклятие 'Чёрной Жемчужины' / Pirates of the Caribbean: The Curse of the Black Pearl (СТС)
Director : JUSTKANT
Writing application : VirtualDubMod 1.5.10.3 (build 2550/release)
Copyright : Качество звука: VHSRipТВ (bora86bora)
Video
ID : 0
Format : MPEG-4 Visual
Format profile : Advanced [email protected]
Format settings, BVOP : 1
Format settings, QPel : No
Format settings, GMC : No warppoints
Format settings, Matrix : Custom
Codec ID : XVID
Codec ID/Hint : XviD
Duration : 2 h 23 min
Bit rate : 1 258 kb/s
Width : 688 pixels
Height : 384 pixels
Display aspect ratio : 16:9
Frame rate : 23.976 (24000/1001) FPS
Color space : YUV
Chroma subsampling : 4:2:0
Bit depth : 8 bits
Scan type : Progressive
Compression mode : Lossy
Bits/(Pixel*Frame) : 0.199
Stream size : 1.26 GiB (86%)
Writing library : XviD 67
Audio
ID : 1
Format : AC-3
Format/Info : Audio Coding 3
Format settings, Endianness : Big
Codec ID : 2000
Duration : 2 h 23 min
Bit rate mode : Constant
Bit rate : 192 kb/s
Channel(s) : 2 channels
Channel positions : Front: L R
Sampling rate : 48.0 kHz
Frame rate : 31.250 FPS (1536 SPF)
Bit depth : 16 bits
Compression mode : Lossy
Stream size : 197 MiB (13%)
Alignment : Split accross interleaves
Interleave, duration : 42 ms (1.00 video frame)
Interleave, preload duratio : 500 ms
Title : СТС: Андрей Симанов, Андрей Бархударов, Александр Груздев и Ольга Сирина
Service kind : Complete Main

Скриншот c названием фильма

Скриншоты

If your ratio falls below 0.3, you will not be able to download Torrents! More about the rating.

[erzsebet.pl].t888.torrent
Torrent: Registered   [ 2017-12-02 17:26 ]

Download .torrent

Download

15 KB

Status: checked
Completed: 16 times
Size: 1.46 GB
terms.php

#1

02-Dec-2017 17:26

[Profile]  [PM] 
Display posts:    

You cannot post new topics in this forum
You cannot reply to topics in this forum
You cannot edit your posts in this forum
You cannot delete your posts in this forum
You cannot vote in polls in this forum
You cannot attach files in this forum
You can download files in this forum
User agreement
For copyright holders
Advertise on this site

Скачайте на халяву через торрент на трекере erzsebet.pl

!ATTENTION!
The site does not give electronic versions of products, and is engaged only in a collecting and cataloguing of the references sent and published at a forum by our readers. If you are the legal owner of any submitted material and do not wish that the reference to it was in our catalogue, contact us and we shall immediately remove her. Files for an exchange on tracker are given by users of a site, and the administration does not bear the responsibility for their maintenance. The request to not fill in the files protected by copyrights, and also files of the illegal maintenance!